<?xml version="1.0" encoding="UTF-8" standalone="no"?>
<!--
 Remix Icon v4.5.0
 https://remixicon.com
 https://github.com/Remix-Design/RemixIcon

 Copyright RemixIcon.com
 Released under the Apache License Version 2.0

 Date: 2024-10-28
-->
<!DOCTYPE svg PUBLIC "-//W3C//DTD SVG 1.1//EN" "http://www.w3.org/Graphics/SVG/1.1/DTD/svg11.dtd">
<svg xmlns="http://www.w3.org/2000/svg">
<defs>
  <font id="remixicon" horiz-adv-x="1250">
    <font-face font-family="remixicon" units-per-em="1200" ascent="1020" descent="180"/>
    <missing-glyph horiz-adv-x="0"/>
    <glyph glyph-name="24-hours-fill" unicode="" horiz-adv-x="1250" d="M625.0005000000001 370.0002500000001C707.8405000000001 370.0002500000001 775.0005000000001 302.8402500000001 775.0005000000001 220.0002500000001C775.0005000000001 177.54525 757.3605000000001 139.20525 729.0105000000001 111.91525L633.5055000000001 20.0202499999999L775.0005000000001 20.0002500000001V-79.9997500000001H474.9995000000001L474.9545000000001 6.22025L659.6705000000001 183.97025C669.1255000000001 193.08525 675.0005000000001 205.8552500000001 675.0005000000001 220.0002500000001C675.0005000000001 247.6152500000001 652.6155000000001 270.0002500000001 625.0005000000001 270.0002500000001C597.3855000000001 270.0002500000001 575.0005000000001 247.6152500000001 575.0005000000001 220.0002500000001H474.9995000000001C474.9995000000001 302.8402500000001 542.1555000000002 370.0002500000001 625.0005000000001 370.0002500000001zM925.0005000000002 370.0002500000001V170.0002500000001H1025.0005V370.0002500000001H1125.0004999999999V-79.9997500000001H1025.0005V70.0002500000001H825.0005000000001V370.0002500000001H925.0005000000002zM224.9995000000001 420.0002500000001C224.9995000000001 293.67025 283.5615 181.02025 375.0190000000001 107.7152500000001L375.0005000000001 -13.10975C225.5495000000001 73.3452500000001 124.9995000000001 234.93025 124.9995000000001 420.0002500000001H224.9995000000001zM625.0005000000001 919.99975C884.2655000000001 919.99975 1097.4405000000002 722.6687499999999 1122.5305 470.00525L1021.9055000000002 469.9952500000001C997.3005000000002 667.31425 828.9805 819.9997500000001 625.0005000000001 819.9997500000001C501.8065 819.9997500000001 391.6210000000001 764.30825 318.2455000000001 676.72825L424.9995000000002 569.9997500000001H124.9995000000001V869.9997500000001L247.3275000000001 747.67575C339.0010000000001 853.24525 474.2045000000001 919.99975 625.0005000000001 919.99975z"/>
    <glyph glyph-name="24-hours-line" unicode="" horiz-adv-x="1250" d="M625.0005000000001 370.0002500000001C707.8405000000001 370.0002500000001 775.0005000000001 302.8402500000001 775.0005000000001 220.0002500000001C775.0005000000001 177.54525 757.3605000000001 139.20525 729.0105000000001 111.91525L633.5055000000001 20.0202499999999L775.0005000000001 20.0002500000001V-79.9997500000001H474.9995000000001L474.9545000000001 6.22025L659.6705000000001 183.97025C669.1255000000001 193.08525 675.0005000000001 205.8552500000001 675.0005000000001 220.0002500000001C675.0005000000001 247.6152500000001 652.6155000000001 270.0002500000001 625.0005000000001 270.0002500000001C597.3855000000001 270.0002500000001 575.0005000000001 247.6152500000001 575.0005000000001 220.0002500000001H474.9995000000001C474.9995000000001 302.8402500000001 542.1555000000002 370.0002500000001 625.0005000000001 370.0002500000001zM925.0005000000002 370.0002500000001V170.0002500000001H1025.0005V370.0002500000001H1125.0004999999999V-79.9997500000001H1025.0005V70.0002500000001H825.0005000000001V370.0002500000001H925.0005000000002zM224.9995000000001 420.0002500000001C224.9995000000001 293.67025 283.5615 181.02025 375.0190000000001 107.7152500000001L375.0005000000001 -13.10975C225.5495000000001 73.3452500000001 124.9995000000001 234.93025 124.9995000000001 420.0002500000001H224.9995000000001zM625.0005000000001 919.99975C884.2655000000001 919.99975 1097.4405000000002 722.6687499999999 1122.5305 470.00525L1021.9055000000002 469.9952500000001C997.3005000000002 667.31425 828.9805 819.9997500000001 625.0005000000001 819.9997500000001C487.5105000000001 819.9997500000001 366.2230000000001 750.63325 294.2255000000001 644.9877500000001L424.9995000000002 644.9997500000001V544.9997500000001H124.9995000000001V844.9997500000001H224.9995000000001L224.9940000000001 720.0412500000001C316.2165000000001 841.46225 461.4365 919.99975 625.0005000000001 919.99975z"/>
    <glyph glyph-name="4k-fill" unicode="" horiz-adv-x="1250" d="M175 870H1075C1102.615 870 1125 847.614 1125 820V20C1125 -7.615 1102.615 -30 1075 -30H175C147.386 -30 125 -7.615 125 20V820C125 847.614 147.386 870 175 870zM600 345V420H550V570H475V420H400V570H325V345H475V270H550V345H600zM925 270L812.5 420L925 570H837.5L750 457.5V570H675V270H750V382.5L837.5 270H925z"/>
    <glyph glyph-name="4k-line" unicode="" horiz-adv-x="1250" d="M225 770V70H1025V770H225zM175 870H1075C1102.615 870 1125 847.614 1125 820V20C1125 -7.615 1102.615 -30 1075 -30H175C147.386 -30 125 -7.615 125 20V820C125 847.614 147.386 870 175 870zM600 345H550V270H475V345H325V570H400V420H475V570H550V420H600V345zM925 270H837.5L750 382.5V270H675V570H750V457.5L837.5 570H925L812.5 420L925 270z"/>
    <glyph glyph-name="a-b" unicode="" horiz-adv-x="1250" d="M240 270V170C240 117.28 287.5 70 340 70H490V-30H340C229.543 -30 140 59.5450000000001 140 170V270H240zM890 520L1110 -30H1002.25L942.2 120H737.7L677.75 -30H570.0500000000001L790 520H890zM840 375.74L777.65 220H902.25L840 375.74zM140 870H440C522.845 870 590 802.8425 590 720C590 681.561 575.5400000000001 646.499 551.765 619.9559999999999C575.56 593.4580000000001 590 558.4155 590 520C590 437.155 522.845 370 440 370H140V870zM440 570H240V470H440C467.614 470 490 492.385 490 520C490 547.5 467.5000000000001 570 440 570zM840 870C950.455 870 1040 780.457 1040 670V570H940V670C940 725.2284999999999 895.23 770 840 770H690V870H840zM440 770H240V670H440C467.614 670 490 692.386 490 720C490 747.5 467.5000000000001 770 440 770z"/>
    <glyph glyph-name="account-box-fill" unicode="" horiz-adv-x="1250" d="M175 770.2455C175 825.3385000000001 219.631 870 274.7545 870H975.245C1030.3400000000001 870 1075 825.369 1075 770.2455V69.755C1075 14.66 1030.37 -30 975.245 -30H274.7545C219.6615 -30 175 14.6300000000001 175 69.755V770.2455zM342.8435 120H917.375C854.125 210.6750000000001 749.045 270 630.11 270C511.172 270 406.091 210.6750000000001 342.8435 120zM625 370C721.65 370 800 448.35 800 545C800 641.65 721.65 720 625 720C528.35 720 450 641.65 450 545C450 448.35 528.35 370 625 370z"/>
    <glyph glyph-name="account-box-line" unicode="" horiz-adv-x="1250" d="M175 770.2455C175 825.3385000000001 219.631 870 274.7545 870H975.245C1030.3400000000001 870 1075 825.369 1075 770.2455V69.755C1075 14.66 1030.37 -30 975.245 -30H274.7545C219.6615 -30 175 14.6300000000001 175 69.755V770.2455zM275 770V70H975V770H275zM423.608 110.9599999999999C392.6735 124.355 363.3595000000001 140.7850000000001 336.0415000000001 159.88C398.3865 256.235 506.801 320 630.11 320C750.075 320 855.945 259.645 919.0049999999998 167.64C892.19 147.8200000000001 863.32 130.615 832.775 116.41C787.36 179.17 713.5 220 630.11 220C544.325 220 468.6355 176.795 423.608 110.9599999999999zM625 370C528.35 370 450 448.35 450 545C450 641.65 528.35 720 625 720C721.65 720 800 641.65 800 545C800 448.35 721.65 370 625 370zM625 470C666.42 470 700 503.58 700 545C700 586.4215 666.42 620 625 620C583.58 620 550 586.4215 550 545C550 503.58 583.58 470 625 470z"/>
    <glyph glyph-name="account-circle-fill" unicode="" horiz-adv-x="1250" d="M625 920C901 920 1125 696 1125 420C1125 144 901 -80 625 -80C349 -80 125 144 125 420C125 696 349 920 625 920zM326.166 249.1850000000001C399.5415 139.655 509.7555 70 632.985 70C756.215 70 866.4300000000001 139.655 939.805 249.1850000000001C859.4250000000001 324.14 751.5600000000001 370 632.985 370C514.4105 370 406.5475 324.14 326.166 249.1850000000001zM625 470C707.845 470 775 537.1575 775 620C775 702.8425 707.845 770 625 770C542.155 770 475 702.8425 475 620C475 537.1575 542.155 470 625 470z"/>
    <glyph glyph-name="account-circle-line" unicode="" horiz-adv-x="1250" d="M625 920C901.14 920 1125 696.1424999999999 1125 420C1125 143.86 901.14 -80 625 -80C348.8575 -80 125 143.86 125 420C125 696.1424999999999 348.8575 920 625 920zM632.985 220C531.2149999999999 220 439.591 176.565 375.6380000000001 107.2199999999999C444.0195 52.63 530.7 20 625 20C723.475 20 813.635 55.585 883.3299999999999 114.595C819.78 179.6299999999999 731.095 220 632.985 220zM625 820C404.086 820 225 640.914 225 420C225 329.4699999999999 255.075 245.9649999999999 305.7785 178.93C387.8195 265.7950000000001 504.072 320 632.985 320C757.205 320 869.665 269.67 951.09 188.29C997.63 253.665 1025 333.635 1025 420C1025 640.914 845.915 820 625 820zM625 770C735.4549999999999 770 825 680.457 825 570C825 459.5450000000001 735.4549999999999 370 625 370C514.543 370 425 459.5450000000001 425 570C425 680.457 514.543 770 625 770zM625 670C569.77 670 525 625.2284999999999 525 570C525 514.77 569.77 470 625 470C680.23 470 725 514.77 725 570C725 625.2284999999999 680.23 670 625 670z"/>
    <glyph glyph-name="account-pin-box-fill" unicode="" horiz-adv-x="1250" d="M725 20L625 -80L525 20H274.7545C219.6615 20 175 64.6300000000001 175 119.755V820.2455C175 875.3385000000001 219.631 920 274.7545 920H975.245C1030.3400000000001 920 1075 875.369 1075 820.2455V119.755C1075 64.66 1030.37 20 975.245 20H725zM342.8435 170H917.375C854.125 260.6750000000001 749.045 320 630.11 320C511.172 320 406.091 260.6750000000001 342.8435 170zM625 420C721.65 420 800 498.35 800 595C800 691.65 721.65 770 625 770C528.35 770 450 691.65 450 595C450 498.35 528.35 420 625 420z"/>
    <glyph glyph-name="account-pin-box-line" unicode="" horiz-adv-x="1250" d="M725 20L625 -80L525 20H274.7545C219.6615 20 175 64.6300000000001 175 119.755V820.2455C175 875.3385000000001 219.631 920 274.7545 920H975.245C1030.3400000000001 920 1075 875.369 1075 820.2455V119.755C1075 64.66 1030.37 20 975.245 20H725zM975 120V820H275V120H566.42L625 61.42L683.58 120H975zM423.608 160.9599999999999C392.6735 174.355 363.3595000000001 190.7850000000001 336.0415000000001 209.88C398.3865 306.235 506.801 370 630.11 370C750.075 370 855.945 309.645 919.0049999999998 217.64C892.19 197.8200000000001 863.32 180.615 832.775 166.41C787.36 229.17 713.5 270 630.11 270C544.325 270 468.6355 226.795 423.608 160.9599999999999zM625 420C528.35 420 450 498.35 450 595C450 691.65 528.35 770 625 770C721.65 770 800 691.65 800 595C800 498.35 721.65 420 625 420zM625 520C666.42 520 700 553.58 700 595C700 636.4215 666.42 670 625 670C583.58 670 550 636.4215 550 595C550 553.58 583.58 520 625 520z"/>
    <glyph glyph-name="account-pin-circle-fill" unicode="" horiz-adv-x="1250" d="M737.7900000000001 -17.21L625 -130L512.2080000000001 -17.21C290.4705 33.98 125 232.7850000000001 125 470C125 746 349 970 625 970C901 970 1125 746 1125 470C1125 232.7850000000001 959.53 33.98 737.7900000000001 -17.21zM326.166 299.1850000000001C399.5415 189.655 509.7555 120 632.985 120C756.215 120 866.4300000000001 189.655 939.805 299.1850000000001C859.4250000000001 374.14 751.5600000000001 420 632.985 420C514.4105 420 406.5475 374.14 326.166 299.1850000000001zM625 520C707.845 520 775 587.1575 775 670C775 752.8425 707.845 820 625 820C542.155 820 475 752.8425 475 670C475 587.1575 542.155 520 625 520z"/>
    <glyph glyph-name="account-pin-circle-line" unicode="" horiz-adv-x="1250" d="M512.231 -17.23C290.399 33.905 125 232.635 125 470C125 746.1424999999999 348.8575 970 625 970C901.14 970 1125 746.1424999999999 1125 470C1125 232.635 959.6 33.905 737.77 -17.23L625 -130L512.231 -17.23zM375.5865 157.1650000000001C421.2235 120.6999999999999 475.2165 93.9250000000001 534.6949999999999 80.215L562.655 73.7699999999999L625 11.4199999999998L687.345 73.7699999999999L715.3050000000001 80.215C778.725 94.835 835.915 124.305 883.38 164.545C819.8249999999999 229.61 731.125 270 632.985 270C531.1899999999999 270 439.5415 226.5400000000001 375.5865 157.1650000000001zM305.781 228.93C387.822 315.7950000000001 504.073 370 632.985 370C757.2 370 869.655 319.675 951.08 238.3C997.815 304.0750000000001 1025 384.295 1025 470C1025 690.914 845.915 870 625 870C404.086 870 225 690.914 225 470C225 380.18 254.854 296.39 305.781 228.93zM625 420C514.543 420 425 509.5450000000001 425 620C425 730.457 514.543 820 625 820C735.4549999999999 820 825 730.457 825 620C825 509.5450000000001 735.4549999999999 420 625 420zM625 520C680.23 520 725 564.77 725 620C725 675.2284999999999 680.23 720 625 720C569.77 720 525 675.2284999999999 525 620C525 564.77 569.77 520 625 520z"/>
    <glyph glyph-name="add-box-fill" unicode="" horiz-adv-x="1250" d="M225 870H1025C1052.615 870 1075 847.614 1075 820V20C1075 -7.615 1052.615 -30 1025 -30H225C197.386 -30 175 -7.615 175 20V820C175 847.614 197.386 870 225 870zM575 470H375V370H575V170H675V370H875V470H675V670H575V470z"/>
    <glyph glyph-name="add-box-line" unicode="" horiz-adv-x="1250" d="M225 870H1025C1052.615 870 1075 847.614 1075 820V20C1075 -7.615 1052.615 -30 1025 -30H225C197.386 -30 175 -7.615 175 20V820C175 847.614 197.386 870 225 870zM275 770V70H975V770H275zM575 470V670H675V470H875V370H675V170H575V370H375V470H575z"/>
    <glyph glyph-name="add-circle-fill" unicode="" horiz-adv-x="1250" d="M625 -80C348.8575 -80 125 143.86 125 420C125 696.1424999999999 348.8575 920 625 920C901.14 920 1125 696.1424999999999 1125 420C1125 143.86 901.14 -80 625 -80zM575 470H375V370H575V170H675V370H875V470H675V670H575V470z"/>
    <glyph glyph-name="add-circle-line" unicode="" horiz-adv-x="1250" d="M575 470V670H675V470H875V370H675V170H575V370H375V470H575zM625 -80C348.8575 -80 125 143.86 125 420C125 696.1424999999999 348.8575 920 625 920C901.14 920 1125 696.1424999999999 1125 420C1125 143.86 901.14 -80 625 -80zM625 20C845.915 20 1025 199.085 1025 420C1025 640.914 845.915 820 625 820C404.086 820 225 640.914 225 420C225 199.085 404.086 20 625 20z"/>
    <glyph glyph-name="add-fill" unicode="" horiz-adv-x="1250" d="M575 470V770H675V470H975V370H675V70H575V370H275V470H575z"/>
    <glyph glyph-name="add-line" unicode="" horiz-adv-x="1250" d="M575 470V770H675V470H975V370H675V70H575V370H275V470H575z"/>
    <glyph glyph-name="admin-fill" unicode="" horiz-adv-x="1250" d="M575 295V-105H175C175 115.915 354.086 295 575 295zM575 345C409.25 345 275 479.25 275 645C275 810.75 409.25 945 575 945C740.75 945 875 810.75 875 645C875 479.25 740.75 345 575 345zM1025 145H1075V-105H675V145H725V195C725 277.8450000000001 792.155 345 875 345C957.845 345 1025 277.8450000000001 1025 195V145zM925 145V195C925 222.615 902.6149999999998 245 875 245C847.3850000000001 245 825 222.615 825 195V145H925z"/>
    <glyph glyph-name="admin-line" unicode="" horiz-adv-x="1250" d="M575 295V195C409.3145 195 275 60.6850000000001 275 -105H175C175 115.915 354.086 295 575 295zM575 345C409.25 345 275 479.25 275 645C275 810.75 409.25 945 575 945C740.75 945 875 810.75 875 645C875 479.25 740.75 345 575 345zM575 445C685.5 445 775 534.5 775 645C775 755.5 685.5 845 575 845C464.4999999999999 845 375 755.5 375 645C375 534.5 464.4999999999999 445 575 445zM1025 145H1075V-105H675V145H725V195C725 277.8450000000001 792.155 345 875 345C957.845 345 1025 277.8450000000001 1025 195V145zM925 145V195C925 222.615 902.6149999999998 245 875 245C847.3850000000001 245 825 222.615 825 195V145H925z"/>
    <glyph glyph-name="advertisement-fill" unicode="" horiz-adv-x="1250" d="M402.5985 370L444.9485 475.74L487.199 370H402.5985zM825 420H875V320H825C797.385 320 775 342.385 775 370C775 397.615 797.385 420 825 420zM1075 870H175C147.386 870 125 847.614 125 820V20C125 -7.615 147.386 -30 175 -30H1075C1102.615 -30 1125 -7.615 1125 20V820C1125 847.614 1102.615 870 1075 870zM654.9000000000001 220H547.15L527.15 270H362.6485L342.6485 220H234.9485L294.8985 369.9L294.9485 370L394.9485 620H494.9485L654.9000000000001 220zM875 620H975V220H825C742.155 220 675 287.155 675 370C675 452.845 742.155 520 825 520H875V620z"/>
    <glyph glyph-name="advertisement-line" unicode="" horiz-adv-x="1250" d="M654.9000000000001 220L494.9465 620H394.9465L294.9465 370L294.8975 369.9L234.9485 220H342.6515L362.6465 270H527.15L547.15 220H654.9000000000001zM402.6 370L444.9465 475.745L487.201 370H402.6zM875 620H975V220H825C742.155 220 675 287.155 675 370C675 452.845 742.155 520 825 520H875V620zM825 420C797.3900000000001 420 775 397.6099999999999 775 370C775 342.3900000000001 797.3900000000001 320 825 320H875V420H825zM1075 870H175C147.3875 870 125 847.6125 125 820V20C125 -7.6099999999999 147.3875 -30 175 -30H1075C1102.61 -30 1125 -7.6099999999999 1125 20V820C1125 847.6125 1102.61 870 1075 870zM225 70V770H1025V70H225z"/>
    <glyph glyph-name="airplay-fill" unicode="" horiz-adv-x="1250" d="M645 343.3349999999999L894.9999999999999 10C903.285 -1.045 901.045 -16.7150000000001 890 -25C885.675 -28.2449999999999 880.41 -30 875 -30H375C361.193 -30 350 -18.8050000000001 350 -5C350 0.41 351.7545 5.675 355 10L605 343.3349999999999C613.2850000000001 354.38 628.955 356.62 640 348.3350000000001C641.895 346.91 643.58 345.23 645 343.3349999999999zM925 70V170H1025V770H225V170H325V70H174.59C147.2025 70 125 92.23 125 120.0450000000001V819.9565C125 847.5945 147.7655 870 174.59 870H1075.4099999999999C1102.8 870 1125 847.7685 1125 819.9565V120.0450000000001C1125 92.405 1102.235 70 1075.4099999999999 70H925z"/>
    <glyph glyph-name="airplay-line" unicode="" horiz-adv-x="1250" d="M645 343.3349999999999L894.9999999999999 10C903.285 -1.045 901.045 -16.7150000000001 890 -25C885.675 -28.2449999999999 880.41 -30 875 -30H375C361.193 -30 350 -18.8050000000001 350 -5C350 0.41 351.7545 5.675 355 10L605 343.3349999999999C613.2850000000001 354.38 628.955 356.62 640 348.3350000000001C641.895 346.91 643.58 345.23 645 343.3349999999999zM625 203.5000000000001L525 70H725L625 203.5000000000001zM925 70V170H1025V770H225V170H325V70H174.59C147.2025 70 125 92.23 125 120.0450000000001V819.9565C125 847.5945 147.7655 870 174.59 870H1075.4099999999999C1102.8 870 1125 847.7685 1125 819.9565V120.0450000000001C1125 92.405 1102.235 70 1075.4099999999999 70H925z"/>
    <glyph glyph-name="alarm-fill" unicode="" horiz-adv-x="1250" d="M624.9982499999999 -61.32575C376.47125 -61.32575 174.9992499999999 140.1442499999998 174.9992499999999 388.6742499999999C174.9992499999999 637.2012499999998 376.47125 838.6732499999999 624.9982499999999 838.6732499999999C873.5282500000001 838.6732499999999 1074.9982499999999 637.2012499999998 1074.9982499999999 388.6742499999999C1074.9982499999999 140.1442499999998 873.5282500000001 -61.32575 624.9982499999999 -61.32575zM674.9982499999999 388.6742499999999V638.6732499999998H574.9982499999999V288.6742499999999H824.9982499999999V388.6742499999999H674.9982499999999zM112.3467499999999 724.5492499999999L289.12325 901.32575L359.83425 830.61525L183.0572499999999 653.8382499999999L112.3467499999999 724.5492499999999zM960.8732499999998 901.32575L1137.65325 724.5492499999999L1066.9432499999998 653.8382499999999L890.1632499999998 830.61525L960.8732499999998 901.32575z"/>
    <glyph glyph-name="alarm-line" unicode="" horiz-adv-x="1250" d="M624.9982499999999 -61.32575C376.47125 -61.32575 174.9992499999999 140.1442499999998 174.9992499999999 388.6742499999999C174.9992499999999 637.2012499999998 376.47125 838.6732499999999 624.9982499999999 838.6732499999999C873.5282500000001 838.6732499999999 1074.9982499999999 637.2012499999998 1074.9982499999999 388.6742499999999C1074.9982499999999 140.1442499999998 873.5282500000001 -61.32575 624.9982499999999 -61.32575zM624.9982499999999 38.6742499999999C818.2982499999998 38.6742499999999 974.9982499999998 195.37425 974.9982499999998 388.6742499999999C974.9982499999998 581.97325 818.2982499999998 738.6732499999999 624.9982499999999 738.6732499999999C431.6992499999999 738.6732499999999 274.99925 581.97325 274.99925 388.6742499999999C274.99925 195.37425 431.6992499999999 38.6742499999999 624.9982499999999 38.6742499999999zM674.9982499999999 388.6742499999999H824.9982499999999V288.6742499999999H574.9982499999999V638.6732499999998H674.9982499999999V388.6742499999999zM112.3467499999999 724.5492499999999L289.12325 901.32575L359.83425 830.61525L183.0572499999999 653.8382499999999L112.3467499999999 724.5492499999999zM960.8732499999998 901.32575L1137.65325 724.5492499999999L1066.9432499999998 653.8382499999999L890.1632499999998 830.61525L960.8732499999998 901.32575z"/>
    <glyph glyph-name="alarm-warning-fill" unicode="" horiz-adv-x="1250" d="M225 20V320C225 540.914 404.086 720 624.9995 720C845.9145 720 1024.9995000000001 540.914 1024.9995000000001 320V20H1074.9995000000001V-80H175.0000000000001V20H225zM325 320H425C425 430.455 514.543 520 624.9995 520V620C459.3145 620 325 485.6850000000001 325 320zM574.9995 920H674.9995V770H574.9995V920zM1013.9094999999998 779.6195L1084.6195 708.9085L978.5545 602.8425L907.8445 673.5535L1013.9094999999998 779.6195zM165.3805000000001 708.9085L236.0910000000001 779.6195L342.1570000000001 673.5535L271.4465 602.8425L165.3805000000001 708.9085z"/>
    <glyph glyph-name="alarm-warning-line" unicode="" horiz-adv-x="1250" d="M225 20V320C225 540.914 404.086 720 624.9995 720C845.9145 720 1024.9995000000001 540.914 1024.9995000000001 320V20H1074.9995000000001V-80H175.0000000000001V20H225zM325 20H924.9995V320C924.9995 485.6850000000001 790.6845000000001 620 624.9995 620C459.3145 620 325 485.6850000000001 325 320V20zM574.9995 920H674.9995V770H574.9995V920zM1013.9094999999998 779.6195L1084.6195 708.9085L978.5545 602.8425L907.8445 673.5535L1013.9094999999998 779.6195zM165.3805000000001 708.9085L236.0910000000001 779.6195L342.1570000000001 673.5535L271.4465 602.8425L165.3805000000001 708.9085zM375 320C375 458.0700000000001 486.9285000000001 570 624.9995 570V470C542.1595 470 475 402.8450000000001 475 320H375z"/>
    <glyph glyph-name="album-fill" unicode="" horiz-adv-x="1250" d="M625 920C901 920 1125 696 1125 420C1125 144 901 -80 625 -80C349 -80 125 144 125 420C125 696 349 920 625 920zM625 220C735.665 220 825 309.3350000000001 825 420C825 530.6664999999999 735.665 620 625 620C514.3335000000001 620 425 530.6664999999999 425 420C425 309.3350000000001 514.3335000000001 220 625 220zM625 470C652.5 470 675 447.5 675 420C675 392.5 652.5 370 625 370C597.5 370 575 392.5 575 420C575 447.5 597.5 470 625 470z"/>
    <glyph glyph-name="album-line" unicode="" horiz-adv-x="1250" d="M625 20C845.915 20 1025 199.085 1025 420C1025 640.914 845.915 820 625 820C404.086 820 225 640.914 225 420C225 199.085 404.086 20 625 20zM625 -80C348.8575 -80 125 143.86 125 420C125 696.1424999999999 348.8575 920 625 920C901.14 920 1125 696.1424999999999 1125 420C1125 143.86 901.14 -80 625 -80zM625 320C680.23 320 725 364.77 725 420C725 475.23 680.23 520 625 520C569.77 520 525 475.23 525 420C525 364.77 569.77 320 625 320zM625 220C514.543 220 425 309.5450000000001 425 420C425 530.457 514.543 620 625 620C735.4549999999999 620 825 530.457 825 420C825 309.5450000000001 735.4549999999999 220 625 220z"/>
    <glyph glyph-name="alert-fill" unicode="" horiz-adv-x="1250" d="M668.29486905392 857.4964760368797L1144.60986905392 32.4949760368797C1158.41986905392 8.5799760368797 1150.22486905392 -22.0000239631202 1126.30986905392 -35.8050239631202C1118.7098690539199 -40.1950239631203 1110.08486905392 -42.5050239631203 1101.30986905392 -42.5050239631203H148.6813690539201C121.0673690539201 -42.5050239631203 98.6813690539201 -20.1200239631203 98.6813690539201 7.4949760368797C98.6813690539201 16.2749760368797 100.9918690539201 24.8949760368797 105.3803690539201 32.4949760368797L581.6948690539201 857.4964760368797C595.4998690539201 881.4114760368798 626.07986905392 889.6049760368797 649.9948690539201 875.7979760368797C657.5948690539201 871.4094760368797 663.90986905392 865.0974760368797 668.29486905392 857.4964760368797zM574.9948690539201 207.4949760368797V107.4949760368797H674.9948690539201V207.4949760368797H574.9948690539201zM574.9948690539201 557.4964760368797V307.4949760368798H674.9948690539201V557.4964760368797H574.9948690539201z"/>
    <glyph glyph-name="alert-line" unicode="" horiz-adv-x="1250" d="M668.29486905392 857.4964760368797L1144.60986905392 32.4949760368797C1158.41986905392 8.5799760368797 1150.22486905392 -22.0000239631202 1126.30986905392 -35.8050239631202C1118.7098690539199 -40.1950239631203 1110.08486905392 -42.5050239631203 1101.30986905392 -42.5050239631203H148.6813690539201C121.0673690539201 -42.5050239631203 98.6813690539201 -20.1200239631203 98.6813690539201 7.4949760368797C98.6813690539201 16.2749760368797 100.9918690539201 24.8949760368797 105.3803690539201 32.4949760368797L581.6948690539201 857.4964760368797C595.4998690539201 881.4114760368798 626.07986905392 889.6049760368797 649.9948690539201 875.7979760368797C657.5948690539201 871.4094760368797 663.90986905392 865.0974760368797 668.29486905392 857.4964760368797zM235.2838690539201 57.4949760368797H1014.7048690539202L624.9948690539201 732.4964760368798L235.2838690539201 57.4949760368797zM574.9948690539201 207.4949760368797H674.9948690539201V107.4949760368797H574.9948690539201V207.4949760368797zM574.9948690539201 557.4964760368797H674.9948690539201V307.4949760368798H574.9948690539201V557.4964760368797z"/>
    <glyph glyph-name="aliens-fill" unicode="" horiz-adv-x="1250" d="M625 932.5C859.72 932.5 1050 742.221 1050 507.5C1050 182.5 775 -92.5 625 -92.5C475 -92.5 200 182.5 200 507.5C200 742.221 390.279 932.5 625 932.5zM900 432.5C775.735 432.5 675 331.765 675 207.5C675 199.485 675.42 191.5700000000001 676.26 183.74C684.0600000000001 182.9200000000001 691.98 182.5 700 182.5C824.265 182.5 925 283.235 925 407.5C925 415.52 924.58 423.44 923.73 431.265C915.93 432.0800000000001 908.015 432.5 900 432.5zM350 432.5C341.9815 432.5 334.0605 432.0800000000001 326.2375 431.24C325.4195000000001 423.44 325 415.52 325 407.5C325 283.235 425.7360000000001 182.5 550 182.5C558.015 182.5 565.93 182.9200000000001 573.765 183.7700000000001C574.58 191.5700000000001 575 199.485 575 207.5C575 331.765 474.264 432.5 350 432.5z"/>
    <glyph glyph-name="aliens-line" unicode="" horiz-adv-x="1250" d="M625 932.5C859.72 932.5 1050 742.221 1050 507.5C1050 182.5 775 -92.5 625 -92.5C475 -92.5 200 182.5 200 507.5C200 742.221 390.279 932.5 625 932.5zM625 832.5C445.5075 832.5 300 686.9925000000001 300 507.5C300 267.8100000000001 508.2499999999999 7.5 625 7.5C741.75 7.5 950 267.8100000000001 950 507.5C950 686.9925000000001 804.495 832.5 625 832.5zM900 482.5C908.015 482.5 915.93 482.08 923.73 481.265C924.58 473.4399999999999 925 465.52 925 457.5C925 333.235 824.265 232.5 700 232.5C691.98 232.5 684.0600000000001 232.92 676.26 233.74C675.42 241.5700000000001 675 249.485 675 257.5C675 381.765 775.735 482.5 900 482.5zM350 482.5C474.264 482.5 575 381.765 575 257.5C575 249.485 574.58 241.5700000000001 573.765 233.77C565.93 232.92 558.015 232.5 550 232.5C425.7360000000001 232.5 325 333.235 325 457.5C325 465.52 325.4195000000001 473.4399999999999 326.2375 481.24C334.0605 482.08 341.9815 482.5 350 482.5z"/>
    <glyph glyph-name="align-bottom" unicode="" horiz-adv-x="1250" d="M175 70H1075V-30H175V70zM425 370H575L375 170L175 370H325V870H425V370zM925 370H1075L875 170L675 370H825V870H925V370z"/>
    <glyph glyph-name="align-center" unicode="" horiz-adv-x="1250" d="M175 845H1075V745H175V845zM275 95H975V-5H275V95zM175 345H1075V245H175V345zM275 595H975V495H275V595z"/>
    <glyph glyph-name="align-justify" unicode="" horiz-adv-x="1250" d="M175 845H1075V745H175V845zM175 95H1075V-5H175V95zM175 345H1075V245H175V345zM175 595H1075V495H175V595z"/>
    <glyph glyph-name="align-left" unicode="" horiz-adv-x="1250" d="M175 845H1075V745H175V845zM175 95H875V-5H175V95zM175 345H1075V245H175V345zM175 595H875V495H175V595z"/>
    <glyph glyph-name="align-right" unicode="" horiz-adv-x="1250" d="M175 845H1075V745H175V845zM375 95H1075V-5H375V95zM175 345H1075V245H175V345zM375 595H1075V495H375V595z"/>
    <glyph glyph-name="align-top" unicode="" horiz-adv-x="1250" d="M175 870H1075V770H175V870zM425 470V-30H325V470H175L375 670L575 470H425zM925 470V-30H825V470H675L875 670L1075 470H925z"/>
    <glyph glyph-name="align-vertically" unicode="" horiz-adv-x="1250" d="M175 470H1075V370H175V470zM925 120V-30H825V120H675L875 320L1075 120H925zM425 120V-30H325V120H175L375 320L575 120H425zM925 720H1075L875 520L675 720H825V870H925V720zM425 720H575L375 520L175 720H325V870H425V720z"/>
    <glyph glyph-name="alipay-fill" unicode="" horiz-adv-x="1250" d="M1096.12 252.12C904.645 309.76 793.335 344.12 762.2 355.2000000000001C790.6 404 813.4000000000001 460 828.2 521.1999999999999H665V576.4H865V610.4H665V702.8H588.1999999999999C574.2 702.8 572.6 690.4000000000001 572.6 690.4000000000001V610.8H385V576.8H572.6V521.6H419V490.8000000000001H730.1999999999999C719 452 703.8000000000001 415.2000000000001 685.8 382C615.4 405.2000000000001 576.1999999999999 421.2 490.2 429.2C327.4 444.8000000000001 289.8 355.2000000000001 283.8 300.4C275 216.8 349 148.8000000000001 459.4 148.8000000000001C569.8000000000001 148.8000000000001 643.4 200.0000000000001 713.4000000000001 284.8C771.73 256.905 880.295 208.5350000000001 1039.095 139.69C949.175 7.115 797.26 -80 625 -80C348.8575 -80 125 143.86 125 420C125 696.1424999999999 348.8575 920 625 920C901.14 920 1125 696.1424999999999 1125 420C1125 361.11 1114.82 304.5950000000001 1096.12 252.12zM446.6 201.6C329.8 201.6 311.4 275.6 317.4 306.4C323.4 337.2 357.4 377.2000000000001 422.6 377.2000000000001C497.4 377.2000000000001 564.2 358 644.6 319.2000000000001C587.8 245.2 518.6 201.6 446.6 201.6z"/>
    <glyph glyph-name="alipay-line" unicode="" horiz-adv-x="1250" d="M945.395 180.4850000000001C836.765 228.01 759.4350000000001 262.7850000000001 713.4000000000001 284.8C643.4 200.0000000000001 569.8000000000001 148.8000000000001 459.4 148.8000000000001C349 148.8000000000001 275 216.8 283.8 300.4C289.8 355.2000000000001 327.4 444.8000000000001 490.2 429.2C576.1999999999999 421.2 615.4 405.2000000000001 685.8 382C703.8000000000001 415.2000000000001 719 452 730.1999999999999 490.8000000000001H419V521.6H572.6V576.8H385V610.8H572.6V690.4000000000001C572.6 690.4000000000001 574.2 702.8 588.1999999999999 702.8H665V610.4H865V576.4H665V521.1999999999999H828.2C813.4000000000001 460 790.6 404 762.2 355.2000000000001C787.715 346.12 867.0500000000001 321.41 1000.215 281.0750000000001C1016.245 324.35 1025 371.15 1025 420C1025 640.914 845.915 820 625 820C404.086 820 225 640.914 225 420C225 199.085 404.086 20 625 20C756.085 20 872.4399999999999 83.055 945.395 180.4850000000001zM625 -80C348.8575 -80 125 143.86 125 420C125 696.1424999999999 348.8575 920 625 920C901.14 920 1125 696.1424999999999 1125 420C1125 143.86 901.14 -80 625 -80zM446.6 201.6C518.6 201.6 587.8 245.2 644.6 319.2000000000001C564.2 358 497.4 377.2000000000001 422.6 377.2000000000001C357.4 377.2000000000001 323.4 337.2 317.4 306.4C311.4 275.6 329.8 201.6 446.6 201.6z"/>
    <glyph glyph-name="amazon-fill" unicode="" horiz-adv-x="1250" d="M1124.924942307457 133.9500000000001C1124.924942307457 97.56 1104.6699423074572 27.5650000000001 1059.1899423074572 -10.8950000000001C1050.0849423074571 -17.9150000000001 1040.9799423074571 -13.9300000000002 1044.9699423074571 -3.7300000000001C1058.1999423074571 28.66 1088.5449423074572 103.64 1074.3249423074571 120.86C1064.269942307457 133.9500000000001 1022.774942307457 132.995 987.384942307457 129.9599999999999C971.2249423074568 127.9149999999999 957.039942307457 126.9249999999999 946.029942307457 124.74C935.834942307457 123.895 933.754942307457 132.8549999999999 943.9499423074571 139.8749999999999C957.039942307457 149.12 971.2249423074568 156.145 987.489942307457 161.26C1044.9699423074571 178.48 1111.4199423074572 168.115 1120.9349423074573 157.13C1122.7749423074572 155.005 1124.924942307457 149.12 1124.924942307457 133.9500000000001zM1028.844942307457 69.1999999999999C1015.754942307457 59.11 1001.5699423074572 49.9 987.384942307457 41.75C881.249942307457 -22.045 743.814942307457 -55.42 624.449942307457 -55.42C432.3274423074571 -55.42 260.4574423074571 15.43 130.0819423074571 133.9500000000001C118.8969423074571 143.05 128.1414423074571 156.2850000000001 141.2319423074571 149.12C281.698442307457 67.12 455.614942307457 17.5100000000001 635.634942307457 17.5100000000001C748.934942307457 17.5100000000001 871.049942307457 38.7149999999999 987.384942307457 84.34C995.499942307457 87.3749999999999 1004.604942307457 91.5 1012.579942307457 94.3950000000001C1030.924942307457 102.685 1047.049942307457 82.295 1028.844942307457 69.1999999999999zM720.329942307457 620.6775C720.3699423074571 672.7875 722.434942307457 703.4350000000001 705.1699423074571 729.7405C689.849942307457 751.3794999999999 663.5299423074571 764.356 626.749942307457 762.323C586.839942307457 760.1165 543.994942307457 733.9525 533.0499423074571 686.0079999999999C530.944942307457 675.0645 524.502442307457 664.245 511.2464423074571 661.85L389.4644423074571 677.3359999999999C380.750942307457 679.4005 367.5359423074571 686.0079999999999 371.8724423074571 703.4350000000001C398.0124423074571 841.033 515.623442307457 888.978 626.749942307457 895.42H652.8899423074571C713.884942307457 895.42 792.264942307457 877.9929999999999 842.439942307457 832.196C903.269942307457 775.4139999999999 896.7849423074571 699.0989999999999 896.7849423074571 616.1764999999999V419.8549999999999C896.7849423074571 360.9649999999999 920.654942307457 334.8699999999999 944.689942307457 304.185C951.174942307457 293.24 953.404942307457 280.315 942.459942307457 271.435C918.424942307457 249.675 872.749942307457 210.485 846.6099423074571 188.7199999999999C837.899942307457 182.0749999999999 822.194942307457 181.365 816.134942307457 186.4499999999999C777.644942307457 218.74 768.229942307457 236.625 744.359942307457 269.375C702.8999423074571 225.8050000000001 668.0449423074571 201.7699999999999 626.584942307457 188.7199999999999C600.444942307457 182.0749999999999 572.2399423074571 177.9 537.384942307457 177.9C432.866442307457 177.9 350.109442307457 243.065 350.109442307457 371.95C350.109442307457 474.365 404.6199423074571 544.04 485.1059423074571 576.9865C565.589942307457 609.935 682.599942307457 620.4915 720.329942307457 620.6775zM696.459942307457 361.13C722.434942307457 404.7000000000001 720.329942307457 440.44 720.329942307457 520.37C687.744942307457 520.37 654.999942307457 518.0999999999999 626.749942307457 511.49C574.509942307457 496.3349999999999 533.0499423074571 463.425 533.0499423074571 393.7149999999999C533.0499423074571 339.205 561.4199423074571 302.12 609.324942307457 302.12C615.929942307457 302.12 621.714942307457 302.945 626.749942307457 304.3499999999999C660.214942307457 313.69 681.139942307457 330.4899999999999 696.459942307457 361.13z"/>
    <glyph glyph-name="amazon-line" unicode="" horiz-adv-x="1250" d="M793.0748826564909 336.9187500000001C737.7198826564909 255.99375 656.6448826564908 217.71375 561.7998826564908 217.71375C446.5943826564909 217.71375 347.9798826564908 306.34875 362.1588826564908 423.9087500000001C377.8888826564908 554.32375 479.1303826564908 610.44275 647.5648826564908 631.0607500000001C677.6198826564909 634.7402500000001 690.0648826564909 635.77425 754.9098826564908 640.57825C757.3448826564909 640.75825 759.6398826564908 640.92975 761.8148826564908 641.0937500000001C761.8048826564908 644.6517500000001 761.7998826564908 648.2307500000001 761.7998826564908 651.8312500000001C761.7998826564908 741.62625 708.4048826564908 802.92125 636.7998826564908 802.92125C564.9548826564909 802.92125 514.7798826564908 765.55375 484.0608826564907 676.60125L389.5378826564908 709.24125C433.9088826564908 837.7352500000001 521.4398826564908 902.92125 636.7998826564908 902.92125C766.9348826564909 902.92125 861.7998826564908 794.0222500000001 861.7998826564908 651.8312500000001C861.7998826564908 519.38875 869.9648826564909 414.0437500000001 885.9648826564909 373.95375C903.7648826564908 329.3487500000001 910.2548826564908 318.12875 930.1498826564908 293.31875L852.1398826564908 230.75375C825.979882656491 263.37375 814.5098826564908 283.19875 793.0848826564909 336.8887500000001L793.0748826564909 336.9187500000001zM1074.6248826564909 40.6587499999999C1061.0848826564907 30.6637500000001 1037.5498826564906 36.60875 1048.2048826564908 62.68375C1061.4348826564908 95.07875 1075.5398826564908 133.0687500000001 1061.3198826564908 150.2887500000001C1050.7998826564908 163.0237500000001 1037.9398826564907 169.3687500000001 1009.9498826564908 169.3687500000001C986.9698826564908 169.3687500000001 975.4298826564908 166.3987500000001 960.2048826564908 165.3837500000001C949.9948826564907 164.6987500000001 945.5298826564908 180.2387500000001 955.639882656491 187.37875C968.7298826564908 196.6237500000001 982.8448826564908 203.8687500000001 999.1798826564908 208.7587500000001C1056.6598826564907 225.9787500000001 1124.4148826564908 216.5437500000001 1132.6248826564909 204.6337500000001C1150.8948826564906 178.1287500000001 1122.709882656491 76.17375 1074.6248826564909 40.6587499999999zM1015.5348826564908 94.8837500000001C1002.444882656491 82.10375 988.259882656491 70.44375 974.0748826564908 60.1237500000001C867.9398826564908 -20.6562499999999 730.5048826564908 -62.92125 611.1398826564908 -62.92125C419.0173826564908 -62.92125 247.1473826564908 26.7937499999999 116.7718826564908 176.86375C105.5868826564908 188.3937500000001 114.8313826564908 205.14875 127.9218826564908 196.07875C268.3883826564908 92.24375 442.3048826564908 29.4287500000002 622.3248826564908 29.4287500000002C735.6248826564909 29.4287500000002 857.7398826564907 56.2787500000001 974.0748826564908 114.0487500000001C982.1898826564908 117.8887500000001 991.2948826564908 123.11875 999.2698826564908 126.78375C1017.6148826564907 137.2837500000001 1033.7398826564906 111.45875 1015.5348826564908 94.8837500000001zM762.2998826564908 540.8537500000001C699.3748826564909 536.18875 687.4998826564909 535.20375 659.7148826564908 531.80375C532.0748826564909 516.17875 469.8523826564908 481.68875 461.4393826564907 411.9337500000001C455.1463826564908 359.7587500000001 501.9253826564908 317.71375 561.7998826564908 317.71375C663.7498826564909 317.71375 737.6598826564908 379.10375 762.8998826564908 540.8937500000001C762.6998826564909 540.87875 762.4998826564909 540.86875 762.2998826564908 540.8537500000001z"/>
    <glyph glyph-name="anchor-fill" unicode="" horiz-adv-x="1250" d="M675 526.301V23.5999999999999C855.9350000000001 46.2750000000001 999.345 190.3849999999999 1021.905 372.2100000000001H875L1060.21 670C1101.45 596.934 1125 512.46 1125 422.455C1125 144.9549999999999 901.14 -80 625 -80C348.8575 -80 125 144.9549999999999 125 422.455C125 512.46 148.5485 596.934 189.791 670L375 372.2100000000001H228.0945C250.657 190.3849999999999 394.064 46.2750000000001 575 23.5999999999999V526.301C488.7385 548.5029999999999 425 626.808 425 720C425 830.457 514.543 920 625 920C735.4549999999999 920 825 830.457 825 720C825 626.808 761.26 548.5029999999999 675 526.301zM625 620C680.23 620 725 664.7715000000001 725 720C725 775.2284999999999 680.23 820 625 820C569.77 820 525 775.2284999999999 525 720C525 664.7715000000001 569.77 620 625 620z"/>
    <glyph glyph-name="anchor-line" unicode="" horiz-adv-x="1250" d="M127.469 470H375V370H228.0945C250.657 189.065 394.064 45.6550000000001 575 23.095V526.301C488.7385 548.5029999999999 425 626.808 425 720C425 830.457 514.543 920 625 920C735.4549999999999 920 825 830.457 825 720C825 626.808 761.26 548.5029999999999 675 526.301V23.095C855.9350000000001 45.6550000000001 999.345 189.065 1021.905 370H875V470H1122.53C1124.165 453.5549999999999 1125 436.875 1125 420C1125 143.86 901.14 -80 625 -80C348.8575 -80 125 143.86 125 420C125 436.875 125.836 453.5549999999999 127.469 470zM625 620C680.23 620 725 664.7715000000001 725 720C725 775.2284999999999 680.23 820 625 820C569.77 820 525 775.2284999999999 525 720C525 664.7715000000001 569.77 620 625 620z"/>
    <glyph glyph-name="ancient-gate-fill" unicode="" horiz-adv-x="1250" d="M373.205 870H876.7950000000001C889.22 783.9 963.0100000000002 720 1050 720C1066.6100000000001 720 1083.13 722.3645 1099.075 727.0219999999999C1089.86 637.807 1014.69 570 925 570H325C235.311 570 160.14 637.807 150.926 727.0215000000001C166.868 722.3645 183.3915 720 200 720C286.9925 720 360.7775000000001 783.9 373.205 870zM1173.93 464.4300000000001C1152.1100000000001 452.045 1126.88 444.975 1100 444.975C1044.48 444.975 996.0050000000002 475.14 970.065 519.9749999999999H279.9325C253.997 475.14 205.521 444.975 150 444.975C123.1185 444.975 97.889 452.045 76.069 464.4300000000001C75.3625 458.045 75 451.55 75 444.975C75 375.1650000000001 115.8765 314.905 175 286.815V-30H475V70C475 152.845 542.16 220 625 220C707.845 220 775 152.845 775 70V-30H1075V286.815C1134.125 314.905 1175 375.1650000000001 1175 444.975C1175 451.55 1174.635 458.045 1173.93 464.4300000000001z"/>
    <glyph glyph-name="ancient-gate-line" unicode="" horiz-adv-x="1250" d="M373.2035 870H876.79C889.22 783.8995 963.0050000000002 720 1050 720C1066.605 720 1083.13 722.364 1099.07 727.0215000000001C1089.86 637.807 1014.685 570 925 570H324.9985000000001C235.3095 570 160.139 637.807 150.9245 727.0215000000001C166.8665 722.364 183.3905 720 199.9985 720C286.991 720 360.776 783.8995 373.2035 870zM869.97 687.1195C841.9549999999999 711.38 820.0999999999999 739.0070000000001 804.4050000000001 770H445.592C429.8965 739.0070000000001 408.0420000000001 711.38 380.0285 687.1195C372.9550000000001 680.9935 365.725 675.287 358.339 670H891.6550000000001C884.2750000000001 675.287 877.0450000000001 680.9935 869.97 687.1195zM1100 444.975C1126.88 444.975 1152.1100000000001 452.045 1173.93 464.4300000000001C1174.635 458.045 1175 451.55 1175 444.975C1175 375.1650000000001 1134.125 314.905 1075 286.815V-30H725V70C725 125.23 680.23 170 625 170C569.77 170 525 125.23 525 70V-30H175V286.815C115.8765 314.905 75 375.1650000000001 75 444.975C75 451.55 75.3625 458.045 76.069 464.4300000000001C97.889 452.045 123.1185 444.975 150 444.975C205.521 444.975 253.997 475.14 279.9325 519.9749999999999H970.065C996.0050000000002 475.14 1044.48 444.975 1100 444.975zM973.16 379.515C953.78 390.94 936.48 404.425 921.26 419.975H328.7395C313.521 404.425 296.2215 390.94 276.8415 379.515C266.7 373.535 256.3415 368.3349999999999 245.766 363.91L275 350.02V70H425C425 125.23 444.526 172.37 483.5785 211.42C522.631 250.475 569.77 270 625 270C680.23 270 727.37 250.475 766.42 211.42C805.475 172.37 825 125.23 825 70H975V350.02L1004.2350000000002 363.91C993.66 368.3349999999999 983.3 373.535 973.16 379.515z"/>
    <glyph glyph-name="ancient-pavilion-fill" unicode="" horiz-adv-x="1250" d="M100.79175 601.1935000000001C108.99675 503.5440000000001 179.45825 422.4325 275.00125 400.6575000000001V44.9675H175.00125V-55.0325H1075.0032499999998V44.9675H975.00325V400.6575000000001C1070.54325 422.4325 1141.0082499999999 503.5440000000001 1149.20825 601.1935000000001C1124.68825 597.0935 1099.8632499999999 595.0325 1075.0032499999998 595.0325C884.2982499999999 595.0325 714.3032499999999 715.2365 650.73825 895.0325H599.26325C535.69825 715.2365 365.70375 595.0325 175.00125 595.0325C150.13725 595.0325 125.31575 597.0935 100.79175 601.1935000000001zM875.00325 44.9675H375.0012500000001V395.0325000000001H875.00325V44.9675z"/>
    <glyph glyph-name="ancient-pavilion-line" unicode="" horiz-adv-x="1250" d="M100.79175 601.1935000000001C108.99675 503.5440000000001 179.45825 422.4325 275.00125 400.6575000000001V44.9675H175.00125V-55.0325H1075.0032499999998V44.9675H975.00325V400.6575000000001C1070.54325 422.4325 1141.0082499999999 503.5440000000001 1149.20825 601.1935000000001C1124.68825 597.0935 1099.8632499999999 595.0325 1075.0032499999998 595.0325C884.2982499999999 595.0325 714.3032499999999 715.2365 650.73825 895.0325H599.26325C535.69825 715.2365 365.70375 595.0325 175.00125 595.0325C150.13725 595.0325 125.31575 597.0935 100.79175 601.1935000000001zM875.00325 44.9675H375.0012500000001V395.0325000000001H875.00325V44.9675zM952.77825 498.158L939.06325 495.0325H310.93725L297.22425 498.158C290.42075 499.7085 283.90275 501.7355 277.67075 504.239C354.50425 518.423 426.12875 548.9965000000001 492.54475 595.9594999999999C545.37325 633.317 589.52825 677.2385 625.00325 727.725C660.47825 677.2385 704.62825 633.317 757.45825 595.9594999999999C823.87325 548.9965000000001 895.49825 518.423 972.33325 504.239C966.1032499999998 501.7355 959.58325 499.7085 952.77825 498.158z"/>
    <glyph glyph-name="android-fill" unicode="" horiz-adv-x="1250" d="M344.1155 821.595C421.0995 883.1765 518.7495 920 625 920C731.25 920 828.9 883.1765 905.885 821.595L978.555 894.264L1049.2649999999999 823.5535L976.595 750.8845C1038.1750000000002 673.9005 1075 576.2505 1075 470V420H175V470C175 576.2505 211.8235 673.9005 273.405 750.8845L200.736 823.5535L271.4465 894.264L344.1155 821.595zM175 320H1075V-30C1075 -57.615 1052.615 -80 1025 -80H225C197.386 -80 175 -57.615 175 -30V320zM475 570C502.614 570 525 592.386 525 620C525 647.614 502.614 670 475 670C447.386 670 425 647.614 425 620C425 592.386 447.386 570 475 570zM775 570C802.615 570 825 592.386 825 620C825 647.614 802.615 670 775 670C747.385 670 725 647.614 725 620C725 592.386 747.385 570 775 570z"/>
    <glyph glyph-name="android-line" unicode="" horiz-adv-x="1250" d="M975 370H275V20H975V370zM975 470C975 663.2995000000001 818.3 820 625 820C431.7005 820 275 663.2995000000001 275 470H975zM344.1155 821.595C421.0995 883.1765 518.7495 920 625 920C731.25 920 828.9 883.1765 905.885 821.595L978.555 894.264L1049.2649999999999 823.5535L976.595 750.8845C1038.1750000000002 673.9005 1075 576.2505 1075 470V-30C1075 -57.615 1052.615 -80 1025 -80H225C197.386 -80 175 -57.615 175 -30V470C175 576.2505 211.8235 673.9005 273.405 750.8845L200.736 823.5535L271.4465 894.264L344.1155 821.595zM475 570C447.386 570 425 592.386 425 620C425 647.614 447.386 670 475 670C502.614 670 525 647.614 525 620C525 592.386 502.614 570 475 570zM775 570C747.385 570 725 592.386 725 620C725 647.614 747.385 670 775 670C802.615 670 825 647.614 825 620C825 592.386 802.615 570 775 570z"/>
    <glyph glyph-name="angularjs-fill" unicode="" horiz-adv-x="1250" d="M625 920L1090 754L1019.075 138.5L625 -80L230.9235 138.5L160 754L625 920zM625 809.5L334.3125 156.9999999999999H442.6960000000001L501.1329999999999 303H747.87L806.3050000000001 156.9999999999999H914.69L625 809.5zM709.91 393H540.09L625 597.5L709.91 393z"/>
    <glyph glyph-name="angularjs-line" unicode="" horiz-adv-x="1250" d="M901.165 187.4649999999999L925.62 201.025L981.565 686.5295L625 813.819L268.436 686.5295L324.3805 201.025L348.073 187.8900000000001L625 809.5L901.165 187.4649999999999zM846.2200000000001 156.9999999999999H806.3050000000001L747.87 303H501.1329999999999L442.6960000000001 156.9999999999999H403.781L625 34.3449999999999L846.2200000000001 156.9999999999999zM625 920L1090 754L1019.075 138.5L625 -80L230.9235 138.5L160 754L625 920zM709.91 393L625 597.5L540.09 393H709.91z"/>
    <glyph glyph-name="anticlockwise-2-fill" unicode="" horiz-adv-x="1250" d="M725 795H825C963.07 795 1075 683.071 1075 545V345H975V545C975 627.8425 907.845 695 825 695H725V545L475 745L725 945V795zM775 445V-55C775 -82.615 752.615 -105 725 -105H225C197.386 -105 175 -82.615 175 -55V445C175 472.615 197.386 495 225 495H725C752.615 495 775 472.615 775 445z"/>
    <glyph glyph-name="anticlockwise-2-line" unicode="" horiz-adv-x="1250" d="M695.7099999999999 688.9350999999999L787.13 597.5136L716.42 526.8026L504.2895 738.9350999999999L716.42 951.0669L787.13 880.3561L695.7099999999999 788.9350999999999H825C963.07 788.9350999999999 1075 677.0061 1075 538.9350999999999V338.9331H975V538.9350999999999C975 621.7775999999999 907.845 688.9350999999999 825 688.9350999999999H695.7099999999999zM775 438.9331V-61.0669C775 -88.6768999999999 752.615 -111.0669 725 -111.0669H225C197.386 -111.0669 175 -88.6768999999999 175 -61.0669V438.9331C175 466.5481 197.386 488.9350999999999 225 488.9350999999999H725C752.615 488.9350999999999 775 466.5481 775 438.9331zM675 388.9331H275V-11.0669H675V388.9331z"/>
    <glyph glyph-name="anticlockwise-fill" unicode="" horiz-adv-x="1250" d="M350 520H500L300 270L100 520H250V620C250 758.071 361.929 870 500 870H700V770H500C417.1575 770 350 702.8425 350 620V520zM600 570H1100C1127.615 570 1150 547.614 1150 520V20C1150 -7.615 1127.615 -30 1100 -30H600C572.385 -30 550 -7.615 550 20V520C550 547.614 572.385 570 600 570z"/>
    <glyph glyph-name="anticlockwise-line" unicode="" horiz-adv-x="1250" d="M606.0668999999999 570H1106.0669C1133.6769 570 1156.0669 547.614 1156.0669 520V20C1156.0669 -7.615 1133.6769 -30 1106.0669 -30H606.0668999999999C578.4518999999999 -30 556.0649 -7.615 556.0649 20V520C556.0649 547.614 578.4518999999999 570 606.0668999999999 570zM656.0668999999999 470V70H1056.0669V470H656.0668999999999zM356.0649 490.7099999999999L447.4864 582.1320000000001L518.1974 511.42L306.0649 299.2900000000001L93.9331 511.42L164.6439 582.1320000000001L256.0649 490.7099999999999V620C256.0649 758.071 367.9939 870 506.0649 870H706.0668999999999V770H506.0649C423.2224 770 356.0649 702.8425 356.0649 620V490.7099999999999z"/>
    <glyph glyph-name="app-store-fill" unicode="" horiz-adv-x="1250" d="M625 920C901.14 920 1125 696.1424999999999 1125 420C1125 143.86 901.14 -80 625 -80C348.8575 -80 125 143.86 125 420C125 696.1424999999999 348.8575 920 625 920zM466.129 252.865C446.402 276.685 421.865 285.2150000000001 392.2005 278.3000000000001L384.6775 276.25L355.242 225.4450000000001C343.9515 205.685 350.605 180.4850000000001 370.363 169.1949999999999C388.4745000000001 158.845 411.1600000000001 163.5700000000001 423.5115 179.6500000000001L426.6130000000001 184.3150000000001L466.129 252.865zM685.485 586.9355C661.09 566.774 636.49 507.0949999999999 670.97 447.62L822.985 184.3150000000001C834.4749999999999 164.5550000000001 859.4749999999999 157.905 879.2350000000001 169.1949999999999C897.345 179.73 904.445 201.615 896.805 220.4050000000001L894.355 225.4450000000001L854.2350000000001 295H913.71C936.49 295 954.8400000000001 313.3449999999999 954.8400000000001 336.13C954.8400000000001 357.16 939.205 374.4100000000001 918.8800000000002 376.94L913.71 377.26H806.6550000000001L697 567.1295L685.485 586.9355zM699.395 739.153C681.285 749.5025 658.6 744.7745 646.245 728.6959999999999L643.145 724.0325L624.8000000000001 692.379L606.855 724.0325C595.365 743.7905000000001 570.365 750.4435 550.605 739.153C532.495 728.619 525.395 706.7339999999999 533.03 687.941L535.485 682.903L577.4200000000001 610.121L443.145 377.4600000000001H338.3065000000001C315.524 377.4600000000001 297.1775 359.115 297.1775 336.33C297.1775 315.3000000000001 312.81 298.05 333.134 295.52L338.3065000000001 295.2H712.3000000000001C729.345 327.1900000000001 709.27 372.64 671.7850000000001 377.105L665.725 377.4600000000001H538.105L714.515 682.903C725.805 702.6614999999999 719.1550000000001 727.863 699.395 739.153z"/>
    <glyph glyph-name="app-store-line" unicode="" horiz-adv-x="1250" d="M625 920C901.14 920 1125 696.1424999999999 1125 420C1125 143.86 901.14 -80 625 -80C348.8575 -80 125 143.86 125 420C125 696.1424999999999 348.8575 920 625 920zM625 820C404.086 820 225 640.914 225 420C225 199.085 404.086 20 625 20C845.915 20 1025 199.085 1025 420C1025 640.914 845.915 820 625 820zM466.129 252.865L426.6130000000001 184.3150000000001C415.3225 164.5550000000001 390.121 157.905 370.363 169.1949999999999C350.605 180.4850000000001 343.9515 205.685 355.242 225.4450000000001L384.6775 276.25C417.742 286.53 444.7580000000001 278.6700000000001 466.129 252.865zM685.485 586.9355L806.6550000000001 377.26H913.71C936.49 377.26 954.8400000000001 358.91 954.8400000000001 336.13C954.8400000000001 313.3449999999999 936.49 295 913.71 295H854.2350000000001L894.355 225.4450000000001C905.645 205.685 898.99 180.685 879.2350000000001 169.1949999999999C859.4749999999999 157.905 834.4749999999999 164.5550000000001 822.985 184.3150000000001L670.97 447.62C636.49 507.0949999999999 661.09 566.774 685.485 586.9355zM699.395 739.153C719.1550000000001 727.863 725.805 702.6614999999999 714.515 682.903L538.105 377.4600000000001H665.725C707.055 377.4600000000001 730.24 328.87 712.3000000000001 295.2H338.3065000000001C315.524 295.2 297.1775 313.5500000000001 297.1775 336.33C297.1775 359.115 315.524 377.4600000000001 338.3065000000001 377.4600000000001H443.145L577.4200000000001 610.121L535.485 682.903C524.1935 702.6614999999999 530.845 727.6614999999999 550.605 739.153C570.365 750.4435 595.365 743.7905000000001 606.855 724.0325L624.8000000000001 692.379L643.145 724.0325C654.435 743.7905000000001 679.635 750.4435 699.395 739.153z"/>
    <glyph glyph-name="apple-fill" unicode="" horiz-adv-x="1250" d="M632.0349483164694 655.8282516585983C588.2349483164692 655.8282516585983 520.4339483164692 705.6282516585983 449.0339483164692 703.8282516585983C354.8339483164692 702.6282516585983 268.4339483164693 649.2287516585983 219.8339483164692 564.6287516585982C122.0339483164692 394.8272516585983 194.6339483164692 144.0272516585984 290.0339483164693 6.0272516585983C336.8339483164692 -61.1727483414018 392.0339483164692 -136.7727483414017 465.2339483164692 -134.3727483414016C535.4339483164692 -131.3727483414016 561.8349483164691 -88.7727483414017 647.0349483164691 -88.7727483414017C731.6349483164693 -88.7727483414017 755.6349483164693 -134.3727483414016 830.0349483164691 -132.5727483414017C905.6349483164691 -131.3727483414016 953.6349483164691 -64.1727483414016 999.834948316469 3.6272516585983C1053.2349483164692 81.6272516585983 1075.4349483164692 157.2272516585984 1076.6349483164693 161.4272516585983C1074.8349483164693 162.0272516585983 929.6349483164691 217.8272516585984 927.8349483164694 385.8272516585983C926.6349483164691 526.2287516585983 1042.4349483164692 593.4282516585982 1047.8349483164693 596.4282516585982C981.8349483164694 693.0282516585983 880.4349483164692 703.8282516585983 845.0349483164694 706.2282516585982C752.6349483164693 713.4282516585982 675.2349483164692 655.8282516585983 632.0349483164694 655.8282516585983zM788.0349483164691 797.4282516585982C827.0349483164691 844.2282516585982 852.8349483164693 909.6282516585982 845.6349483164693 974.4284516585984C789.8349483164693 972.0284516585982 722.6349483164693 937.2282516585984 682.4349483164692 890.4282516585982C646.4349483164692 849.0282516585983 615.2349483164692 782.4282516585982 623.6349483164693 718.8282516585983C685.4349483164692 714.0282516585983 749.0349483164694 750.6282516585983 788.0349483164691 797.4282516585982z"/>
    <glyph glyph-name="apple-line" unicode="" horiz-adv-x="1250" d="M837.2649483164691 606.5307516585983C813.6299483164692 608.3722516585983 788.2349483164692 602.7102516585983 749.3499483164692 587.8937516585984C752.6149483164693 589.1387516585983 712.2399483164693 573.3407516585983 700.9199483164691 569.3887516585983C675.8349483164693 560.6307516585982 655.1849483164692 555.8282516585984 632.0349483164694 555.8282516585984C609.1199483164692 555.8282516585984 587.9899483164693 560.4062516585982 563.7549483164692 568.5857516585984C555.9849483164692 571.2067516585983 548.1729483164693 574.1072516585982 538.5064483164692 577.8822516585983C534.3614483164693 579.5012516585984 519.3634483164692 585.4537516585983 516.0849483164693 586.7377516585984C483.6779483164692 599.4292516585983 465.4419483164692 604.2102516585983 450.3074483164692 603.8367516585984C392.6779483164692 603.1022516585983 338.1434483164693 569.8222516585984 306.4879483164692 514.7172516585983C241.8834483164692 402.5522516585983 277.6564483164692 199.7872516585983 372.0944483164693 63.1772516585983C422.3749483164692 -9.0177483414016 449.8959483164693 -34.8227483414017 460.9644483164692 -34.4677483414017C472.0799483164692 -33.9877483414016 480.2534483164692 -31.6377483414017 500.1484483164692 -23.2027483414018C504.1074483164692 -21.5177483414016 504.1074483164692 -21.5177483414016 508.4649483164692 -19.6577483414017C558.7499483164693 1.7672516585984 593.9549483164692 11.2272516585983 647.0349483164691 11.2272516585983C698.0849483164693 11.2272516585983 732.1799483164691 1.9422516585982 780.4449483164692 -18.8677483414017C784.8749483164693 -20.7827483414017 784.8749483164693 -20.7827483414017 788.8499483164692 -22.4927483414017C808.7349483164692 -31.0127483414017 815.9099483164691 -32.8827483414018 828.4449483164692 -32.5827483414017C846.3199483164692 -32.3027483414017 868.3799483164694 -11.7027483414018 917.3199483164692 60.1172516585984C930.719948316469 79.6922516585982 942.5649483164694 100.2622516585983 952.8399483164692 121.0872516585984C946.2299483164692 126.5422516585983 939.6649483164692 132.3422516585983 933.2399483164692 138.4622516585984C868.7949483164691 199.8872516585983 828.9349483164692 282.7022516585983 827.8399483164692 384.9722516585984C827.1449483164693 465.9972516585984 853.6499483164691 536.1837516585983 898.3149483164691 594.0287516585984C879.8299483164692 601.2172516585983 859.4449483164692 605.0247516585985 837.2649483164691 606.5307516585983zM845.0349483164694 706.2282516585983C880.4349483164692 703.8282516585984 981.8349483164694 693.0282516585983 1047.8349483164693 596.4282516585984C1042.4349483164692 593.4282516585984 926.6349483164691 526.2287516585984 927.8349483164694 385.8272516585983C929.6349483164691 217.8272516585984 1074.8349483164693 162.0272516585984 1076.6349483164693 161.4272516585983C1075.4349483164692 157.2272516585984 1053.2349483164692 81.6272516585984 999.834948316469 3.6272516585984C953.6349483164691 -64.1727483414016 905.6349483164691 -131.3727483414016 830.0349483164691 -132.5727483414017C755.6349483164693 -134.3727483414016 731.6349483164693 -88.7727483414017 647.0349483164691 -88.7727483414017C561.8349483164691 -88.7727483414017 535.4339483164692 -131.3727483414016 465.2339483164692 -134.3727483414016C392.0339483164692 -136.7727483414017 336.8339483164692 -61.1727483414018 290.0339483164693 6.0272516585983C194.6339483164692 144.0272516585985 122.0339483164692 394.8272516585983 219.8339483164692 564.6287516585983C268.4339483164693 649.2287516585984 354.8339483164692 702.6282516585984 449.0339483164692 703.8282516585984C520.4339483164692 705.6282516585984 588.2349483164692 655.8282516585984 632.0349483164694 655.8282516585984C675.2349483164692 655.8282516585984 752.6349483164693 713.4282516585984 845.0349483164694 706.2282516585983zM788.0349483164691 797.4282516585984C749.0349483164694 750.6282516585984 685.4349483164692 714.0282516585983 623.6349483164693 718.8282516585984C615.2349483164692 782.4282516585984 646.4349483164692 849.0282516585983 682.4349483164692 890.4282516585984C722.6349483164693 937.2282516585984 789.8349483164693 972.0284516585982 845.6349483164693 974.4284516585984C852.8349483164693 909.6282516585984 827.0349483164691 844.2282516585983 788.0349483164691 797.4282516585984z"/>
    <glyph glyph-name="apps-2-fill" unicode="" horiz-adv-x="1250" d="M375 445C250.736 445 150 545.7360000000001 150 670C150 794.264 250.736 895 375 895C499.264 895 600 794.264 600 670C600 545.7360000000001 499.264 445 375 445zM375 -55C250.736 -55 150 45.735 150 170C150 294.265 250.736 395 375 395C499.264 395 600 294.265 600 170C600 45.735 499.264 -55 375 -55zM875 445C750.735 445 650 545.7360000000001 650 670C650 794.264 750.735 895 875 895C999.265 895 1100 794.264 1100 670C1100 545.7360000000001 999.265 445 875 445zM875 -55C750.735 -55 650 45.735 650 170C650 294.265 750.735 395 875 395C999.265 395 1100 294.265 1100 170C1100 45.735 999.265 -55 875 -55z"/>
    <glyph glyph-name="apps-2-line" unicode="" horiz-adv-x="1250" d="M375 445C250.736 445 150 545.7360000000001 150 670C150 794.264 250.736 895 375 895C499.264 895 600 794.264 600 670C600 545.7360000000001 499.264 445 375 445zM375 -55C250.736 -55 150 45.735 150 170C150 294.265 250.736 395 375 395C499.264 395 600 294.265 600 170C600 45.735 499.264 -55 375 -55zM875 445C750.735 445 650 545.7360000000001 650 670C650 794.264 750.735 895 875 895C999.265 895 1100 794.264 1100 670C1100 545.7360000000001 999.265 445 875 445zM875 -55C750.735 -55 650 45.735 650 170C650 294.265 750.735 395 875 395C999.265 395 1100 294.265 1100 170C1100 45.735 999.265 -55 875 -55zM375 545C444.0355 545 500 600.9645 500 670C500 739.0355 444.0355 795 375 795C305.9645000000001 795 250 739.0355 250 670C250 600.9645 305.9645000000001 545 375 545zM375 45C444.0355 45 500 100.9649999999999 500 170C500 239.035 444.0355 295 375 295C305.9645000000001 295 250 239.035 250 170C250 100.9649999999999 305.9645000000001 45 375 45zM875 545C944.035 545 1000 600.9645 1000 670C1000 739.0355 944.035 795 875 795C805.965 795 750 739.0355 750 670C750 600.9645 805.965 545 875 545zM875 45C944.035 45 1000 100.9649999999999 1000 170C1000 239.035 944.035 295 875 295C805.965 295 750 239.035 750 170C750 100.9649999999999 805.965 45 875 45z"/>
    <glyph glyph-name="apps-fill" unicode="" horiz-adv-x="1250" d="M362.5 895C479.8605 895 575 799.8605 575 682.5V470H362.5C245.1395000000001 470 150 565.1395 150 682.5C150 799.8605 245.1395000000001 895 362.5 895zM362.5 370H575V157.5C575 40.14 479.8605 -55 362.5 -55C245.1395000000001 -55 150 40.14 150 157.5C150 274.86 245.1395000000001 370 362.5 370zM887.5 895C1004.86 895 1100 799.8605 1100 682.5C1100 565.1395 1004.86 470 887.5 470H675V682.5C675 799.8605 770.14 895 887.5 895zM675 370H887.5C1004.86 370 1100 274.86 1100 157.5C1100 40.14 1004.86 -55 887.5 -55C770.14 -55 675 40.14 675 157.5V370z"/>
    <glyph glyph-name="apps-line" unicode="" horiz-adv-x="1250" d="M362.5 895C479.8605 895 575 799.8605 575 682.5V470H362.5C245.1395000000001 470 150 565.1395 150 682.5C150 799.8605 245.1395000000001 895 362.5 895zM475 570V682.5C475 744.6320000000001 424.632 795 362.5 795C300.368 795 250 744.6320000000001 250 682.5C250 620.3679999999999 300.368 570 362.5 570H475zM362.5 370H575V157.5C575 40.14 479.8605 -55 362.5 -55C245.1395000000001 -55 150 40.14 150 157.5C150 274.86 245.1395000000001 370 362.5 370zM362.5 270C300.368 270 250 219.63 250 157.5C250 95.37 300.368 45 362.5 45C424.632 45 475 95.37 475 157.5V270H362.5zM887.5 895C1004.86 895 1100 799.8605 1100 682.5C1100 565.1395 1004.86 470 887.5 470H675V682.5C675 799.8605 770.14 895 887.5 895zM887.5 570C949.63 570 1000 620.3679999999999 1000 682.5C1000 744.6320000000001 949.63 795 887.5 795C825.37 795 775 744.6320000000001 775 682.5V570H887.5zM675 370H887.5C1004.86 370 1100 274.86 1100 157.5C1100 40.14 1004.86 -55 887.5 -55C770.14 -55 675 40.14 675 157.5V370zM775 270V157.5C775 95.37 825.37 45 887.5 45C949.63 45 1000 95.37 1000 157.5C1000 219.63 949.63 270 887.5 270H775z"/>
    <glyph glyph-name="archive-drawer-fill" unicode="" horiz-adv-x="1250" d="M175 370H1075V-30.125C1075 -57.6700000000001 1052.7549999999999 -80 1025.33 -80H224.67C197.238 -80 175 -57.6849999999999 175 -30.125V370zM175 870.123C175 897.669 197.2475 920 224.67 920H1025.33C1052.76 920 1075 897.6845 1075 870.123V470H175V870.123zM475 770V670H775V770H475zM475 220V120H775V220H475z"/>
    <glyph glyph-name="archive-drawer-line" unicode="" horiz-adv-x="1250" d="M175 870.41C175 897.7975 197.2475 920 224.67 920H1025.33C1052.76 920 1075 897.2345 1075 870.41V-30.4099999999999C1075 -57.7999999999999 1052.7549999999999 -80 1025.33 -80H224.67C197.238 -80 175 -57.2349999999999 175 -30.4099999999999V870.41zM975 470V820H275V470H975zM975 370H275V20H975V370zM475 720H775V620H475V720zM475 270H775V170H475V270z"/>
    <glyph glyph-name="archive-fill" unicode="" horiz-adv-x="1250" d="M175 520H1075V19.78C1075 -7.7150000000001 1052.7549999999999 -30 1025.33 -30H224.67C197.238 -30 175 -7.76 175 19.78V520zM475 420V320H775V420H475zM125 820.0095C125 847.6185 147.7655 870 174.59 870H1075.4099999999999C1102.8 870 1125 847.814 1125 820.0095V620H125V820.0095z"/>
    <glyph glyph-name="archive-line" unicode="" horiz-adv-x="1250" d="M175 520H125V819.8534999999999C125 847.5485 147.7655 870 174.59 870H1075.4099999999999C1102.8 870 1125 848.106 1125 819.8534999999999V520H1075V19.925C1075 -7.6500000000001 1052.7549999999999 -30 1025.33 -30H224.67C197.238 -30 175 -7.625 175 19.925V520zM975 520H275V70H975V520zM225 770V620H1025V770H225zM475 420H775V320H475V420z"/>
    <glyph glyph-name="arrow-down-circle-fill" unicode="" horiz-adv-x="1250" d="M625 920C901 920 1125 696 1125 420C1125 144 901 -80 625 -80C349 -80 125 144 125 420C125 696 349 920 625 920zM675 420V620H575V420H425L625 220L825 420H675z"/>
    <glyph glyph-name="arrow-down-circle-line" unicode="" horiz-adv-x="1250" d="M625 920C901 920 1125 696 1125 420C1125 144 901 -80 625 -80C349 -80 125 144 125 420C125 696 349 920 625 920zM625 20C846.0000000000001 20 1025 198.9999999999999 1025 420C1025 641 846.0000000000001 820 625 820C404 820 225 641 225 420C225 198.9999999999999 404 20 625 20zM675 420H825L625 220L425 420H575V620H675V420z"/>
    <glyph glyph-name="arrow-down-fill" unicode="" horiz-adv-x="1250" d="M675 420H1025L625 20L225 420H575V820H675V420z"/>
    <glyph glyph-name="arrow-down-line" unicode="" horiz-adv-x="1250" d="M674.9994999999999 211.42L943.1995 479.62L1013.9095 408.91L624.9994999999999 20L236.0905 408.91L306.8015 479.62L574.9994999999999 211.42V820H674.9994999999999V211.42z"/>
    <glyph glyph-name="arrow-down-s-fill" unicode="" horiz-adv-x="1250" d="M625 270L325 570H925L625 270z"/>
    <glyph glyph-name="arrow-down-s-line" unicode="" horiz-adv-x="1250" d="M624.99775 366.9695L872.48775 614.4555L943.19775 543.745L624.99775 225.5445L306.80225 543.745L377.51275 614.4555L624.99775 366.9695z"/>
    <glyph glyph-name="arrow-drop-down-fill" unicode="" horiz-adv-x="1250" d="M625 320L425 520H825L625 320z"/>
    <glyph glyph-name="arrow-drop-down-line" unicode="" horiz-adv-x="1250" d="M625.002 278.57875L412.868 490.70875L483.579 561.42125L625.002 419.99875L766.422 561.42125L837.1320000000001 490.70875L625.002 278.57875z"/>
    <glyph glyph-name="arrow-drop-left-fill" unicode="" horiz-adv-x="1250" d="M525 420L725 620V220L525 420z"/>
    <glyph glyph-name="arrow-drop-left-line" unicode="" horiz-adv-x="1250" d="M624.9975 419.99775L766.4225 278.5777499999999L695.7075 207.86775L483.5775 419.99775L695.7075 632.13225L766.4225 561.42125L624.9975 419.99775z"/>
    <glyph glyph-name="arrow-drop-right-fill" unicode="" horiz-adv-x="1250" d="M725 420L525 220V620L725 420z"/>
    <glyph glyph-name="arrow-drop-right-line" unicode="" horiz-adv-x="1250" d="M625.001 419.99775L483.579 561.42125L554.2909999999999 632.13225L766.421 419.99775L554.2909999999999 207.86775L483.579 278.5777499999999L625.001 419.99775z"/>
    <glyph glyph-name="arrow-drop-up-fill" unicode="" horiz-adv-x="1250" d="M625 520L825 320H425L625 520z"/>
    <glyph glyph-name="arrow-drop-up-line" unicode="" horiz-adv-x="1250" d="M625.002 420.0025000000001L483.579 278.5775L412.868 349.2925L625.002 561.4225L837.1320000000001 349.2925L766.422 278.5775L625.002 420.0025000000001z"/>
    <glyph glyph-name="arrow-go-back-fill" unicode="" horiz-adv-x="1250" d="M450 620V420L150 670L450 920V720H700C920.915 720 1100 540.914 1100 320C1100 99.085 920.915 -80 700 -80H250V20H700C865.6850000000001 20 1000 154.315 1000 320C1000 485.6855 865.6850000000001 620 700 620H450z"/>
    <glyph glyph-name="arrow-go-back-line" unicode="" horiz-adv-x="1250" d="M341.4215 621.2575L468.198 494.4805L397.4875 423.7700000000001L150 671.2575L397.4875 918.745L468.198 848.034L341.4215 721.2575H700C920.915 721.2575 1100 542.1715 1100 321.2550000000001C1100 100.345 920.915 -78.745 700 -78.745H250V21.255H700C865.6850000000001 21.255 1000 155.5699999999999 1000 321.2550000000001C1000 486.943 865.6850000000001 621.2575 700 621.2575H341.4215z"/>
    <glyph glyph-name="arrow-go-forward-fill" unicode="" horiz-adv-x="1250" d="M800 620H550C384.3145 620 250 485.6855 250 320C250 154.315 384.3145 20 550 20H1000V-80H550C329.086 -80 150 99.085 150 320C150 540.914 329.086 720 550 720H800V920L1100 670L800 420V620z"/>
    <glyph glyph-name="arrow-go-forward-line" unicode="" horiz-adv-x="1250" d="M908.58 621.2575H550C384.3145 621.2575 250 486.943 250 321.2550000000001C250 155.5699999999999 384.3145 21.255 550 21.255H1000V-78.745H550C329.086 -78.745 150 100.345 150 321.2550000000001C150 542.1715 329.086 721.2575 550 721.2575H908.58L781.8 848.034L852.515 918.745L1100 671.2575L852.515 423.7700000000001L781.8 494.4805L908.58 621.2575z"/>
    <glyph glyph-name="arrow-left-circle-fill" unicode="" horiz-adv-x="1250" d="M625 920C901 920 1125 696 1125 420C1125 144 901 -80 625 -80C349 -80 125 144 125 420C125 696 349 920 625 920zM625 470V620L425 420L625 220V370H825V470H625z"/>
    <glyph glyph-name="arrow-left-circle-line" unicode="" horiz-adv-x="1250" d="M625 920C901 920 1125 696 1125 420C1125 144 901 -80 625 -80C349 -80 125 144 125 420C125 696 349 920 625 920zM625 20C846.0000000000001 20 1025 198.9999999999999 1025 420C1025 641 846.0000000000001 820 625 820C404 820 225 641 225 420C225 198.9999999999999 404 20 625 20zM625 470H825V370H625V220L425 420L625 620V470z"/>
    <glyph glyph-name="arrow-left-down-fill" unicode="" horiz-adv-x="1250" d="M642.6792499999999 366.96925L890.16425 119.47925H324.48075V685.1652500000001L571.96925 437.67925L854.80925 720.52075L925.51925 649.8102500000001L642.6792499999999 366.96925z"/>
    <glyph glyph-name="arrow-left-down-line" unicode="" horiz-adv-x="1250" d="M424.48 290.1905L854.81 720.5195L925.52 649.8085L495.1899999999999 219.4805H874.48V119.4805H324.48V669.4784999999999H424.48V290.1905z"/>
    <glyph glyph-name="arrow-left-fill" unicode="" horiz-adv-x="1250" d="M625 370V20L225 420L625 820V470H1025V370H625z"/>
    <glyph glyph-name="arrow-left-line" unicode="" horiz-adv-x="1250" d="M416.4215 469.997H1025V369.997H416.4215L684.62 101.802L613.91 31.092L225 419.997L613.91 808.9079999999999L684.62 738.1975L416.4215 469.997z"/>
    <glyph glyph-name="arrow-left-right-fill" unicode="" horiz-adv-x="1250" d="M825 220V420L1075 170L825 -80V120H225V220H825zM425 920V720.05L1025 720V620H425V420L175 670L425 920z"/>
    <glyph glyph-name="arrow-left-right-line" unicode="" horiz-adv-x="1250" d="M827.515 417.4875000000001L1075 169.9975000000001L827.515 -77.4875000000001L756.8 -6.7775L883.6 120.0375000000001L225 119.9975000000001V219.9975000000002L883.6 220.0375000000001L756.8 346.7775000000001L827.515 417.4875000000001zM422.4875 917.4875L493.198 846.7765L366.4000000000001 720.0375L1025 720.0000000000001V620.0000000000001L366.4000000000001 620.0375L493.198 493.2225000000001L422.4875 422.5125000000002L175 670.0000000000001L422.4875 917.4875z"/>
    <glyph glyph-name="arrow-left-s-fill" unicode="" horiz-adv-x="1250" d="M475 420L775 720V120L475 420z"/>
    <glyph glyph-name="arrow-left-s-line" unicode="" horiz-adv-x="1250" d="M571.9649999999999 419.9980000000001L819.4549999999999 172.5130000000002L748.7450000000001 101.803L430.545 419.9980000000001L748.7450000000001 738.197L819.4549999999999 667.4865000000001L571.9649999999999 419.9980000000001z"/>
    <glyph glyph-name="arrow-left-up-fill" unicode="" horiz-adv-x="1250" d="M642.6792499999999 473.03425L925.51925 190.1892500000001L854.80925 119.4792499999999L571.96925 402.32425L324.48075 154.8342500000001V720.5207500000001H890.16425L642.6792499999999 473.03425z"/>
    <glyph glyph-name="arrow-left-up-line" unicode="" horiz-adv-x="1250" d="M495.1905 620.52L925.52 190.19L854.81 119.48L424.48 549.8095000000001V170.5200000000001H324.48V720.52H874.48V620.52H495.1905z"/>
    <glyph glyph-name="arrow-right-circle-fill" unicode="" horiz-adv-x="1250" d="M625 920C901 920 1125 696 1125 420C1125 144 901 -80 625 -80C349 -80 125 144 125 420C125 696 349 920 625 920zM625 470H425V370H625V220L825 420L625 620V470z"/>
    <glyph glyph-name="arrow-right-circle-line" unicode="" horiz-adv-x="1250" d="M625 470V620L825 420L625 220V370H425V470H625zM625 920C901 920 1125 696 1125 420C1125 144 901 -80 625 -80C349 -80 125 144 125 420C125 696 349 920 625 920zM625 20C846.0000000000001 20 1025 198.9999999999999 1025 420C1025 641 846.0000000000001 820 625 820C404 820 225 641 225 420C225 198.9999999999999 404 20 625 20z"/>
    <glyph glyph-name="arrow-right-down-fill" unicode="" horiz-adv-x="1250" d="M607.3215 366.96925L324.4785 649.8102500000001L395.189 720.52075L678.0315 437.67925L925.5215 685.1652500000001V119.47925H359.8335L607.3215 366.96925z"/>
    <glyph glyph-name="arrow-right-down-line" unicode="" horiz-adv-x="1250" d="M754.8097499999999 219.4805000000001L324.4802500000001 649.8085000000001L395.1907500000001 720.5194999999999L825.5197499999999 290.1905V669.4784999999999H925.51975V119.4805000000001H375.5212500000001V219.4805000000001H754.8097499999999z"/>
    <glyph glyph-name="arrow-right-fill" unicode="" horiz-adv-x="1250" d="M625 370H225V470H625V820L1025 420L625 20V370z"/>
    <glyph glyph-name="arrow-right-line" unicode="" horiz-adv-x="1250" d="M833.58 469.997L565.38 738.1975L636.09 808.9079999999999L1025 419.997L636.09 31.092L565.38 101.802L833.58 369.997H225V469.997H833.58z"/>
    <glyph glyph-name="arrow-right-s-fill" unicode="" horiz-adv-x="1250" d="M775 420L475 120V720L775 420z"/>
    <glyph glyph-name="arrow-right-s-line" unicode="" horiz-adv-x="1250" d="M678.0345 419.9980000000001L430.5455000000001 667.4865000000001L501.2565 738.197L819.4545 419.9980000000001L501.2565 101.803L430.5455000000001 172.5130000000002L678.0345 419.9980000000001z"/>
    <glyph glyph-name="arrow-right-up-fill" unicode="" horiz-adv-x="1250" d="M678.0315 402.32425L395.189 119.4792499999999L324.4785 190.1892500000001L607.3215 473.03425L359.8335 720.5207500000001H925.5215V154.8342500000001L678.0315 402.32425z"/>
    <glyph glyph-name="arrow-right-up-line" unicode="" horiz-adv-x="1250" d="M825.5197499999999 549.8095000000001L395.1907500000001 119.48L324.4802500000001 190.19L754.8097499999999 620.52H375.5212500000001V720.52H925.51975V170.5200000000001H825.5197499999999V549.8095000000001z"/>
    <glyph glyph-name="arrow-up-circle-fill" unicode="" horiz-adv-x="1250" d="M625 920C901 920 1125 696 1125 420C1125 144 901 -80 625 -80C349 -80 125 144 125 420C125 696 349 920 625 920zM675 420H825L625 620L425 420H575V220H675V420z"/>
    <glyph glyph-name="arrow-up-circle-line" unicode="" horiz-adv-x="1250" d="M625 920C901 920 1125 696 1125 420C1125 144 901 -80 625 -80C349 -80 125 144 125 420C125 696 349 920 625 920zM625 20C846.0000000000001 20 1025 198.9999999999999 1025 420C1025 641 846.0000000000001 820 625 820C404 820 225 641 225 420C225 198.9999999999999 404 20 625 20zM675 420V220H575V420H425L625 620L825 420H675z"/>
    <glyph glyph-name="arrow-up-down-fill" unicode="" horiz-adv-x="1250" d="M625 620H425.05L425 20H325V620H125L375 870L625 620zM1125 220L875 -30L625 220H825V820H925V220H1125z"/>
    <glyph glyph-name="arrow-up-down-line" unicode="" horiz-adv-x="1250" d="M622.48775 622.5125L551.77775 551.8019999999999L425.0372500000001 678.5999999999999L424.99975 20H324.99975L325.0372500000001 678.5999999999999L198.22325 551.8019999999999L127.51225 622.5125L374.99975 870L622.48775 622.5125zM1122.48775 217.485L874.99775 -30L627.51275 217.485L698.2227499999999 288.2000000000001L825.0377500000001 161.4L824.99775 820H924.99775L925.03775 161.4L1051.77775 288.2000000000001L1122.48775 217.485z"/>
    <glyph glyph-name="arrow-up-fill" unicode="" horiz-adv-x="1250" d="M675 420V20H575V420H225L625 820L1025 420H675z"/>
    <glyph glyph-name="arrow-up-line" unicode="" horiz-adv-x="1250" d="M674.9994999999999 628.5785000000001V20H574.9994999999999V628.5785000000001L306.8015 360.38L236.0905 431.0900000000001L624.9994999999999 820L1013.9095 431.0900000000001L943.1995 360.38L674.9994999999999 628.5785000000001z"/>
    <glyph glyph-name="arrow-up-s-fill" unicode="" horiz-adv-x="1250" d="M625 570L925 270H325L625 570z"/>
    <glyph glyph-name="arrow-up-s-line" unicode="" horiz-adv-x="1250" d="M624.99775 473.035L377.51275 225.545L306.80225 296.255L624.99775 614.4549999999999L943.19775 296.255L872.48775 225.545L624.99775 473.035z"/>
    <glyph glyph-name="artboard-2-fill" unicode="" horiz-adv-x="1250" d="M325 720H925V120H325V720zM325 920H425V770H325V920zM325 70H425V-80H325V70zM125 720H275V620H125V720zM125 220H275V120H125V220zM975 720H1125V620H975V720zM975 220H1125V120H975V220zM825 920H925V770H825V920zM825 70H925V-80H825V70z"/>
    <glyph glyph-name="artboard-2-line" unicode="" horiz-adv-x="1250" d="M425 620V220H825V620H425zM325 720H925V120H325V720zM325 920H425V770H325V920zM325 70H425V-80H325V70zM125 720H275V620H125V720zM125 220H275V120H125V220zM975 720H1125V620H975V720zM975 220H1125V120H975V220zM825 920H925V770H825V920zM825 70H925V-80H825V70z"/>
    <glyph glyph-name="artboard-fill" unicode="" horiz-adv-x="1250" d="M454.2895 186.4225H175V286.4225H1075V186.4225H795.7099999999999L957.845 24.2925L887.13 -46.4225L675 165.7125V36.4225H575V165.7125L362.868 -46.4225L292.1575 24.2925L454.2895 186.4225zM275 886.4225H975C1002.6149999999998 886.4225 1025 864.0365 1025 836.4225V336.4225H225V836.4225C225 864.0365 247.386 886.4225 275 886.4225z"/>
    <glyph glyph-name="artboard-line" unicode="" horiz-adv-x="1250" d="M454.2895 186.4225H175V286.4225H1075V186.4225H795.7099999999999L957.845 24.2925L887.13 -46.4225L675 165.7125V36.4225H575V165.7125L362.868 -46.4225L292.1575 24.2925L454.2895 186.4225zM275 886.4225H975C1002.6149999999998 886.4225 1025 864.0365 1025 836.4225V336.4225H225V836.4225C225 864.0365 247.386 886.4225 275 886.4225zM325 786.4225V436.4225H925V786.4225H325z"/>
    <glyph glyph-name="article-fill" unicode="" horiz-adv-x="1250" d="M1025 -80H225C197.386 -80 175 -57.615 175 -30V870C175 897.614 197.386 920 225 920H1025C1052.615 920 1075 897.614 1075 870V-30C1075 -57.615 1052.615 -80 1025 -80zM375 720V520H575V720H375zM375 420V320H875V420H375zM375 220V120H875V220H375zM675 670V570H875V670H675z"/>
    <glyph glyph-name="article-line" unicode="" horiz-adv-x="1250" d="M1025 -80H225C197.386 -80 175 -57.615 175 -30V870C175 897.614 197.386 920 225 920H1025C1052.615 920 1075 897.614 1075 870V-30C1075 -57.615 1052.615 -80 1025 -80zM975 20V820H275V20H975zM375 720H575V520H375V720zM375 420H875V320H375V420zM375 220H875V120H375V220zM675 670H875V570H675V670z"/>
    <glyph glyph-name="aspect-ratio-fill" unicode="" horiz-adv-x="1250" d="M1075 870C1102.615 870 1125 847.614 1125 820V20C1125 -7.615 1102.615 -30 1075 -30H175C147.386 -30 125 -7.615 125 20V820C125 847.614 147.386 870 175 870H1075zM925 420H825V270H675V170H925V420zM575 670H325V420H425V570H575V670z"/>
    <glyph glyph-name="aspect-ratio-line" unicode="" horiz-adv-x="1250" d="M1075 870C1102.615 870 1125 847.614 1125 820V20C1125 -7.615 1102.615 -30 1075 -30H175C147.386 -30 125 -7.615 125 20V820C125 847.614 147.386 870 175 870H1075zM1025 770H225V70H1025V770zM675 170V270H825V420H925V170H675zM575 670V570H425V420H325V670H575z"/>
    <glyph glyph-name="asterisk" unicode="" horiz-adv-x="1250" d="M675.00075 870L674.9907499999999 506.65L989.71075 688.3015L1039.71075 601.699L725.04075 420.05L1039.71075 238.3L989.71075 151.7000000000001L674.9907499999999 333.4000000000001L675.00075 -30H575.00075L574.9907499999999 333.4000000000001L260.28925 151.7000000000001L210.28925 238.3L524.93925 420L210.28925 601.699L260.28925 688.3015L574.9907499999999 506.65L575.00075 870H675.00075z"/>
    <glyph glyph-name="at-fill" unicode="" horiz-adv-x="1250" d="M625 -80C348.8575 -80 125 143.86 125 420C125 696.1424999999999 348.8575 920 625 920C901.14 920 1125 696.1424999999999 1125 420C1125 143.86 901.14 -80 625 -80zM1025 420C1025 640.914 845.915 820 625 820C404.086 820 225 640.914 225 420C225 199.085 404.086 20 625 20C698.51 20 767.39 39.8299999999999 826.58 74.43L776.185 160.8250000000001C731.795 134.87 680.135 120 625 120C459.3145 120 325 254.315 325 420C325 585.6855 459.3145 720 625 720C790.6850000000001 720 925 585.6855 925 420V370C925 342.385 902.6149999999998 320 875 320C847.3850000000001 320 825 342.385 825 370V570H757.29C722.035 601.118 675.72 620 625 620C514.543 620 425 530.457 425 420C425 309.5450000000001 514.543 220 625 220C677.325 220 724.955 240.0900000000001 760.595 272.98C788.11 240.5700000000001 829.1550000000001 220 875 220C957.845 220 1025 287.155 1025 370V420zM625 520C680.23 520 725 475.23 725 420C725 364.77 680.23 320 625 320C569.77 320 525 364.77 525 420C525 475.23 569.77 520 625 520z"/>
    <glyph glyph-name="at-line" unicode="" horiz-adv-x="1250" d="M1025 420C1025 640.914 845.915 820 625 820C404.086 820 225 640.914 225 420C225 199.085 404.086 20 625 20C707.09 20 783.4050000000001 44.7299999999999 846.905 87.145L902.38 3.93C823.01 -49.0899999999999 727.615 -80 625 -80C348.8575 -80 125 143.86 125 420C125 696.1424999999999 348.8575 920 625 920C901.14 920 1125 696.1424999999999 1125 420V345C1125 248.35 1046.65 170 950 170C889.79 170 836.68 200.41 805.1899999999999 246.7050000000001C759.71 199.425 695.7900000000001 170 625 170C486.929 170 375 281.93 375 420C375 558.0709999999999 486.929 670 625 670C681.29 670 733.235 651.3955 775.025 620H875V345C875 303.5800000000001 908.58 270 950 270C991.42 270 1025 303.5800000000001 1025 345V420zM625 570C542.155 570 475 502.845 475 420C475 337.155 542.155 270 625 270C707.845 270 775 337.155 775 420C775 502.845 707.845 570 625 570z"/>
    <glyph glyph-name="attachment-2" unicode="" horiz-adv-x="1250" d="M782.3248125 611.420625L499.4798125 328.5791250000002C479.9533125 309.0541250000001 479.9533125 277.394125 499.4798125 257.8691250000001C519.0058125 238.3391250000002 550.6648125 238.3391250000002 570.1898125000001 257.8691250000001L853.0348125 540.7101250000001C911.6098125 599.2886250000001 911.6098125 694.263125 853.0348125 752.8421250000001C794.4548125000001 811.420625 699.4798125 811.420625 640.8998125 752.8421250000001L358.0583125000001 469.999125C260.4273125000001 372.3691250000001 260.4273125000001 214.079125 358.0583125000001 116.4441250000001C455.6893125 18.814125 613.9798125000001 18.814125 711.6098125000001 116.4441250000001L994.4548125000002 399.2891250000001L1065.1648125 328.5791250000002L782.3248125 45.734125C645.6398125000001 -90.9458750000001 424.0313125 -90.9458750000001 287.3478125000001 45.734125C150.6643125000001 182.4191250000002 150.6643125000001 404.0241250000001 287.3478125000001 540.7101250000001L570.1898125000001 823.552625C667.8198125000001 921.1836250000002 826.1148125000001 921.1836250000002 923.7448125 823.552625C1021.3748125 725.921625 1021.3748125 567.630625 923.7448125 469.999125L640.8998125 187.1541250000001C582.3248125 128.579125 487.3478125 128.579125 428.7693125000001 187.1541250000001C370.1903125000001 245.7341250000001 370.1903125000001 340.7091250000001 428.7693125000001 399.2891250000001L711.6098125000001 682.1311250000001L782.3248125 611.420625z"/>
    <glyph glyph-name="attachment-fill" unicode="" horiz-adv-x="1250" d="M1074.855 870.41L1074.995 -30.4099999999999C1074.995 -57.2349999999999 1052.7649999999999 -80 1025.335 -80H224.675C197.2525 -80 175.005 -57.7999999999999 175.005 -30.4099999999999V870.41C175.005 897.2345 197.239 920 224.666 920H1025.185C1052.6 920 1074.85 897.7975 1074.855 870.41zM475.005 370V570C475.005 597.614 497.391 620 525.005 620C552.62 620 575.005 597.614 575.005 570V370C575.005 342.385 597.39 320 625.005 320C652.62 320 675.005 342.385 675.005 370V570C675.005 652.8425 607.85 720 525.005 720C442.1625 720 375.005 652.8425 375.005 570V370C375.005 231.93 486.934 120 625.005 120C763.075 120 875.005 231.93 875.005 370V620H775.005V370C775.005 287.155 707.85 220 625.005 220C542.16 220 475.005 287.155 475.005 370z"/>
    <glyph glyph-name="attachment-line" unicode="" horiz-adv-x="1250" d="M700 345V620C700 730.457 610.4549999999999 820 500 820C389.543 820 300 730.457 300 620V345C300 165.505 445.5075 20 625 20C804.495 20 950 165.505 950 345V820H1050V345C1050 110.28 859.72 -80 625 -80C390.279 -80 200 110.28 200 345V620C200 785.6855 334.3145 920 500 920C665.6850000000001 920 800 785.6855 800 620V345C800 248.35 721.65 170 625 170C528.35 170 450 248.35 450 345V620H550V345C550 303.5800000000001 583.58 270 625 270C666.42 270 700 303.5800000000001 700 345z"/>
    <glyph glyph-name="auction-fill" unicode="" horiz-adv-x="1250" d="M698.223 -12.8428249999999V-112.842825H98.222V-12.8428249999999H698.223zM727.5129999999999 952.842825L1116.4180000000001 563.934175L1045.708 493.2236750000001L992.6779999999998 510.9011750000001L868.933 387.1571750000001L1151.778 104.312175L1081.063 33.6021750000001L798.223 316.447175L678.0129999999999 196.2371750000001L692.1579999999999 139.6721750000001L621.443 68.957175L232.5365 457.8671750000001L303.2475 528.5786750000001L359.8160000000001 514.436675L674.478 829.0991750000001L656.803 882.1321750000001L727.5129999999999 952.842825z"/>
    <glyph glyph-name="auction-line" unicode="" horiz-adv-x="1250" d="M698.223 -12.8428249999999V-112.842825H98.222V-12.8428249999999H698.223zM727.5129999999999 952.842825L1116.4180000000001 563.934175L1045.708 493.2236750000001L992.6779999999998 510.9011750000001L868.933 387.1571750000001L1151.778 104.312175L1081.063 33.6021750000001L798.223 316.447175L678.0129999999999 196.2371750000001L692.1579999999999 139.6721750000001L621.443 68.957175L232.5365 457.8671750000001L303.2475 528.5786750000001L359.8160000000001 514.436675L674.478 829.0991750000001L656.803 882.1321750000001L727.5129999999999 952.842825zM762.8679999999999 776.066175L409.3135 422.5121750000001L586.088 245.737175L939.643 599.2896750000001L762.8679999999999 776.066175z"/>
    <glyph glyph-name="award-fill" unicode="" horiz-adv-x="1250" d="M875 248.1550000000001V-95.42C875 -109.225 863.805 -120.4250000000001 850 -120.4250000000001C845.47 -120.4250000000001 841.025 -119.1899999999999 837.14 -116.86L625 10.4250000000001L412.8625 -116.86C401.023 -123.9599999999999 385.6665 -120.12 378.5625 -108.2849999999997C376.2315 -104.3949999999999 375 -99.9499999999999 375 -95.42V248.1550000000001C283.5535 321.4600000000002 225 434.105 225 560.4250000000001C225 781.339 404.086 960.425 625 960.425C845.915 960.425 1025 781.339 1025 560.4250000000001C1025 434.105 966.445 321.4600000000002 875 248.1550000000001zM625 260.4250000000001C790.6850000000001 260.4250000000001 925 394.74 925 560.4250000000001C925 726.1105000000001 790.6850000000001 860.4250000000001 625 860.4250000000001C459.3145 860.4250000000001 325 726.1105000000001 325 560.4250000000001C325 394.74 459.3145 260.4250000000001 625 260.4250000000001zM625 360.4250000000001C514.543 360.4250000000001 425 449.9700000000002 425 560.4250000000001C425 670.8820000000001 514.543 760.4250000000001 625 760.4250000000001C735.4549999999999 760.4250000000001 825 670.8820000000001 825 560.4250000000001C825 449.9700000000002 735.4549999999999 360.4250000000001 625 360.4250000000001z"/>
    <glyph glyph-name="award-line" unicode="" horiz-adv-x="1250" d="M875 248.1550000000001V-95.42C875 -109.225 863.805 -120.4250000000001 850 -120.4250000000001C845.47 -120.4250000000001 841.025 -119.1899999999999 837.14 -116.86L625 10.4250000000001L412.8625 -116.86C401.023 -123.9599999999999 385.6665 -120.12 378.5625 -108.2849999999997C376.2315 -104.3949999999999 375 -99.9499999999999 375 -95.42V248.1550000000001C283.5535 321.4600000000002 225 434.105 225 560.4250000000001C225 781.339 404.086 960.425 625 960.425C845.915 960.425 1025 781.339 1025 560.4250000000001C1025 434.105 966.445 321.4600000000002 875 248.1550000000001zM475 189.5V37.0450000000001L625 127.0450000000001L775 37.0450000000001V189.5C728.6800000000001 170.75 678.045 160.4250000000001 625 160.4250000000001C571.955 160.4250000000001 521.3215 170.75 475 189.5zM625 260.4250000000001C790.6850000000001 260.4250000000001 925 394.74 925 560.4250000000001C925 726.1105000000001 790.6850000000001 860.4250000000001 625 860.4250000000001C459.3145 860.4250000000001 325 726.1105000000001 325 560.4250000000001C325 394.74 459.3145 260.4250000000001 625 260.4250000000001z"/>
    <glyph glyph-name="baidu-fill" unicode="" horiz-adv-x="1250" d="M321.4099784564254 394.4584202574478C424.5524784564255 416.6084202574478 410.4994784564253 539.8684202574477 407.4124784564255 566.8089202574477C402.3609784564254 608.3424202574477 353.5099784564254 680.9394202574476 287.1729784564255 675.1969202574477C203.6959784564254 667.7064202574477 191.4994784564254 547.1214202574477 191.4994784564254 547.1214202574477C180.2094784564254 491.3834202574477 218.5264784564254 372.2884202574477 321.4099784564254 394.4584202574478zM430.9424784564254 180.0584202574477C427.9199784564254 171.3984202574477 421.1849784564254 149.2284202574478 427.0134784564254 129.9334202574478C438.5194784564253 86.6284202574477 476.1024784564254 84.6834202574477 476.1024784564254 84.6834202574477H530.1119784564254V216.7134202574477H472.2814784564254C446.2904784564254 208.9634202574478 433.7484784564255 188.7334202574476 430.9424784564254 180.0584202574477zM512.8434784564254 601.1539202574477C569.8119784564253 601.1539202574477 615.8569784564254 666.7134202574478 615.8569784564254 747.7724202574477C615.8569784564254 828.7454202574477 569.8119784564253 894.2834202574477 512.8434784564254 894.2834202574477C455.9614784564254 894.2834202574477 409.8084784564254 828.7454202574477 409.8084784564254 747.7724202574477C409.8084784564254 666.7134202574478 455.9834784564254 601.1539202574477 512.8434784564254 601.1539202574477zM758.2019784564254 591.4614202574477C834.3369784564253 581.5744202574476 883.2969784564254 662.8279202574477 893.0319784564253 724.4154202574477C902.9619784564256 785.9169202574477 853.8319784564254 857.3479202574476 799.9269784564254 869.6309202574477C745.9169784564253 882.0219202574477 678.4819784564254 795.5014202574476 672.3269784564254 739.0944202574476C664.9869784564254 670.1459202574476 682.1919784564254 601.2399202574477 758.2019784564254 591.4614202574477zM758.1769784564254 419.0884202574478C664.9669784564254 564.3264202574477 532.5519784564254 505.2234202574476 488.2559784564254 431.3484202574478C444.1534784564255 357.5034202574477 375.4204784564254 310.7884202574477 365.6634784564253 298.4184202574477C355.7549784564254 286.2434202574477 223.3619784564254 214.7684202574477 252.7634784564254 84.2334202574476C282.1434784564254 -46.2165797425523 385.3724784564254 -43.7365797425523 385.3724784564254 -43.7365797425523C385.3724784564254 -43.7365797425523 461.4449784564254 -51.2265797425523 549.6919784564254 -31.4765797425523C637.9819784564254 -11.8965797425524 713.9919784564254 -36.3515797425523 713.9919784564254 -36.3515797425523C713.9919784564254 -36.3515797425523 920.2119784564254 -105.4115797425522 976.6419784564254 27.5234202574477C1033.0019784564254 160.4984202574477 944.7569784564254 229.4484202574478 944.7569784564254 229.4484202574478C944.7569784564254 229.4484202574478 826.9569784564253 320.5884202574477 758.1769784564254 419.0884202574478zM457.8399784564255 31.6034202574477C399.9434784564254 43.1534202574477 376.8884784564254 82.6584202574476 373.9744784564254 89.3934202574477C371.1249784564254 96.2334202574477 354.6754784564254 127.9884202574476 363.3749784564253 182.0184202574477C388.3944784564254 262.9734202574477 459.7394784564253 268.7784202574477 459.7394784564253 268.7784202574477H531.1069784564254V356.5084202574477L591.8969784564254 355.5784202574477V31.6034202574477H457.8399784564255zM687.3319784564254 32.5334202574477C627.5369784564253 47.9434202574477 624.7519784564254 90.4284202574477 624.7519784564254 90.4284202574477V261.0284202574477L687.3319784564254 262.0434202574477V108.7134202574476C691.1519784564254 92.3484202574477 711.4669784564254 89.3934202574477 711.4669784564254 89.3934202574477H775.0369784564255V261.0284202574477H841.6119784564255V32.5334202574477H687.3319784564254zM1060.0069784564253 488.0384202574477C1060.0069784564253 517.5034202574477 1035.5269784564255 606.2269202574478 944.7569784564254 606.2269202574478C853.8319784564254 606.2269202574478 841.6769784564254 522.4909202574477 841.6769784564254 463.2984202574477C841.6769784564254 406.8084202574477 846.4469784564254 327.9484202574477 959.3919784564254 330.4534202574477C1072.3769784564251 332.9584202574478 1060.0069784564253 458.4184202574477 1060.0069784564253 488.0384202574477z"/>
    <glyph glyph-name="baidu-line" unicode="" horiz-adv-x="1250" d="M403.2556164143108 64.4066089898279C411.7586164143108 64.0166089898279 421.5821164143108 63.8666089898279 432.4536164143109 64.081608989828C463.7296164143108 64.701608989828 496.2851164143108 68.1616089898281 528.0401164143108 75.266608989828C578.6701164143108 86.4966089898279 628.9451164143109 87.6816089898281 677.0651164143108 81.8066089898281C704.4101164143108 78.4666089898281 726.3251164143107 73.551608989828 741.4651164143108 68.941608989828C795.3501164143108 55.2066089898281 872.0201164143109 57.8016089898281 891.7451164143108 89.4866089898282C906.2801164143106 112.8316089898281 904.3701164143108 128.8166089898281 890.4451164143106 149.3816089898279C887.4201164143108 153.8516089898281 884.1351164143109 157.8716089898281 881.0151164143108 161.171608989828C880.5751164143107 161.641608989828 880.1701164143108 162.0516089898281 879.8151164143108 162.411608989828C876.5001164143107 165.046608989828 874.6751164143109 166.511608989828 871.6001164143108 169.0066089898281C862.8101164143109 176.1516089898281 853.0851164143107 184.281608989828 842.6551164143107 193.2966089898279C812.8851164143109 219.021608989828 783.1001164143108 246.916608989828 755.0251164143108 276.266608989828C724.7351164143108 307.921608989828 698.1401164143108 339.511608989828 676.1851164143109 370.9516089898281L674.3951164143109 373.6066089898279C637.2951164143108 430.541608989828 596.4901164143109 426.946608989828 574.2751164143108 389.4716089898281C560.1851164143109 365.6966089898281 544.1951164143109 343.5966089898281 526.5401164143108 322.871608989828C506.0166164143108 298.776608989828 485.0311164143108 278.391608989828 461.2641164143108 258.061608989828C455.1181164143107 252.801608989828 436.1331164143108 237.051608989828 440.6756164143108 240.8466089898281C440.4911164143109 240.6916089898281 439.8321164143108 240.0916089898281 443.2226164143108 244.411608989828C438.3106164143108 238.3766089898281 395.7191164143108 200.5266089898279 383.1786164143108 186.3116089898281C357.4531164143108 157.156608989828 347.0971164143108 132.276608989828 350.9526164143108 112.2766089898281C354.5726164143108 93.5066089898279 361.9016164143108 82.9516089898281 373.4671164143108 75.061608989828C379.3476164143108 71.0516089898281 386.1441164143108 67.966608989828 392.9071164143108 65.926608989828C394.6356164143108 65.4066089898281 396.1666164143108 65.0116089898279 397.4271164143108 64.7366089898281C399.0936164143108 64.6216089898279 401.0421164143108 64.511608989828 403.2556164143108 64.4066089898279zM758.1751164143109 428.2016089898281C826.9551164143106 329.701608989828 944.7551164143108 238.5616089898281 944.7551164143108 238.5616089898281C944.7551164143108 238.5616089898281 1047.9351164143109 151.1616089898281 976.6401164143108 36.636608989828C905.3401164143108 -77.8883910101718 713.9901164143107 -27.238391010172 713.9901164143107 -27.238391010172C713.9901164143107 -27.238391010172 637.9801164143107 -2.783391010172 549.6901164143108 -22.363391010172C461.4431164143108 -42.113391010172 385.3706164143108 -34.623391010172 385.3706164143108 -34.623391010172C385.3706164143108 -34.623391010172 275.0721164143108 -22.363391010172 252.7616164143108 93.346608989828C230.4506164143108 209.051608989828 355.7531164143108 295.3566089898281 365.6616164143108 307.531608989828C375.4186164143108 319.901608989828 441.2581164143108 361.186608989828 488.2541164143108 440.4616089898281C535.2501164143108 519.741608989828 667.4451164143109 567.442108989828 758.1751164143109 428.2016089898281zM1035.1001164143108 499.166608989828C1035.1001164143108 476.3216089898281 1044.6401164143108 379.536608989828 957.4801164143108 377.6066089898279C870.3551164143107 375.6766089898281 866.6751164143109 436.506608989828 866.6751164143109 480.0866089898279C866.6751164143109 525.7466089898279 876.0501164143109 590.3401089898281 946.1901164143108 590.3401089898281C1016.2151164143108 590.3401089898281 1035.1001164143108 521.896608989828 1035.1001164143108 499.166608989828zM763.6451164143109 638.0621089898281C704.6401164143108 645.6536089898281 691.2801164143109 699.147108989828 696.9801164143107 752.673608989828C701.7551164143108 796.463608989828 754.1101164143108 863.631608989828 796.0401164143109 854.012108989828C837.8851164143109 844.476608989828 876.0301164143107 789.022608989828 868.3201164143109 741.2776089898281C860.7601164143107 693.465608989828 822.7551164143108 630.386608989828 763.6451164143109 638.0621089898281zM512.8391164143108 656.398608989828C469.7766164143108 656.398608989828 434.8066164143109 706.0491089898279 434.8066164143109 767.438608989828C434.8066164143109 828.762108989828 469.7601164143107 878.396608989828 512.8391164143108 878.396608989828C555.9851164143108 878.396608989828 590.8551164143107 828.762108989828 590.8551164143107 767.438608989828C590.8551164143107 706.0491089898279 555.9851164143108 656.398608989828 512.8391164143108 656.398608989828zM323.1831164143108 428.0916089898281C238.4266164143108 409.8266089898281 206.8611164143108 507.941608989828 216.1621164143108 553.857608989828C216.1621164143108 553.857608989828 226.2096164143108 653.1961089898281 294.9781164143108 659.367108989828C349.6271164143108 664.0971089898279 389.8711164143108 604.291608989828 394.0321164143108 570.076108989828C396.5756164143108 547.882108989828 408.1526164143108 446.3366089898281 323.1831164143108 428.0916089898281z"/>
    <glyph glyph-name="ball-pen-fill" unicode="" horiz-adv-x="1250" d="M900.518125 412.6772499999999L865.163125 448.0322499999999L370.190125 -46.94275H158.058125V165.1922499999999L723.7431250000001 730.8767499999999L1006.5881250000002 448.0322499999999C1026.113125 428.5072499999999 1026.113125 396.8472499999999 1006.5881250000002 377.3222499999999L653.033125 23.7722499999998L582.323125 94.4822499999999L900.518125 412.6772499999999zM935.873125 872.2982499999998L1077.298125 730.8767499999999C1096.8231250000001 711.3507499999998 1096.8231250000001 679.6922500000001 1077.298125 660.16625L1006.5881250000002 589.4557499999999L794.453125 801.5877499999999L865.163125 872.2982499999998C884.6931249999999 891.8242499999999 916.348125 891.8242499999999 935.873125 872.2982499999998z"/>
    <glyph glyph-name="ball-pen-line" unicode="" horiz-adv-x="1250" d="M900.518125 412.6775L865.163125 448.0325L370.190125 -46.9424999999999H158.058125V165.1925L723.7431250000001 730.8764999999999L1006.5881250000002 448.0325C1026.113125 428.5074999999999 1026.113125 396.8474999999999 1006.5881250000002 377.3225L653.033125 23.7674999999999L582.323125 94.4824999999999L900.518125 412.6775zM794.453125 518.7445L723.7431250000001 589.4555L258.058125 123.7674999999999V53.0575H328.768625L794.453125 518.7445zM935.873125 872.298L1077.298125 730.8764999999999C1096.8231250000001 711.3505 1096.8231250000001 679.692 1077.298125 660.1659999999999L1006.5881250000002 589.4555L794.453125 801.5874999999999L865.163125 872.298C884.6931249999999 891.8239999999998 916.348125 891.8239999999998 935.873125 872.298z"/>
    <glyph glyph-name="bank-card-2-fill" unicode="" horiz-adv-x="1250" d="M1125.0004999999999 469.99975V19.99975C1125.0004999999999 -7.61525 1102.6155 -30.00025 1075.0004999999999 -30.00025H174.9995000000001C147.3855000000001 -30.00025 124.9995000000001 -7.61525 124.9995000000001 19.99975V469.99975H1125.0004999999999zM1125.0004999999999 670.00025H124.9995000000001V820.00025C124.9995000000001 847.61475 147.3855000000001 870.00025 174.9995000000001 870.00025H1075.0004999999999C1102.6155 870.00025 1125.0004999999999 847.61475 1125.0004999999999 820.00025V670.00025z"/>
    <glyph glyph-name="bank-card-2-line" unicode="" horiz-adv-x="1250" d="M174.9995000000001 870.00025H1075.0004999999999C1102.6155 870.00025 1125.0004999999999 847.61475 1125.0004999999999 820.00025V19.99975C1125.0004999999999 -7.61525 1102.6155 -30.00025 1075.0004999999999 -30.00025H174.9995000000001C147.3855000000001 -30.00025 124.9995000000001 -7.61525 124.9995000000001 19.99975V820.00025C124.9995000000001 847.61475 147.3855000000001 870.00025 174.9995000000001 870.00025zM1025.0005 419.99975H224.9995000000001V69.99975H1025.0005V419.99975zM1025.0005 620.00025V770.00025H224.9995000000001V620.00025H1025.0005z"/>
    </font>
</defs>
</svg>
